  0
SECTION
  2
HEADER
  9
$ACADVER
  1
AC1021
  9
$DWGCODEPAGE
  3
ANSI_1252
  9
$EXTMAX
 10
210.0
 20
297.0
 30
0.0
  9
$EXTMIN
 10
0.0
 20
0.0
 30
0.0
  9
$LIMMIN
 10
0.0
 20
0.0
  9
$LIMMAX
 10
210.0
 20
297.0
  9
$VIEWCTR
 10
105.0
 20
148.5
  9
$VIEWSIZE
 40
297.0
  9
$CLAYER
  8
0
  9
$LTSCALE
 40
19.36
  9
$CELTYPE
  6
BYLAYER
  9
$DIMSCALE
 40
1.0
  9
$DIMASZ
 40
3.5
  9
$DIMEXO
 40
2.2
  9
$DIMDLI
 40
13.376
  9
$DIMEXE
 40
6.336
  9
$DIMCEN
 40
3.168
  9
$DIMLFAC
 40
1.0
  9
$DIMBLK
  1
_FILLED
  9
$DIMTXT
 40
2.5
  9
$DIMTOL
 70
1
  9
$DIMLIM
 70
0
  9
$DIMTFAC
 40
1.0
  9
$DIMTP
 40
0.005
  9
$DIMTM
 40
0.005
  9
$PDMODE
 70
3
  9
$PDSIZE
 40
0.3125
  9
$HANDSEED
  5
383
  9
$TILEMODE
 70
1
  9
$MEASUREMENT
 70
1
  9
$INSUNITS
 70
4
  0
ENDSEC
  0
SECTION
  2
CLASSES
  0
CLASS
  1
ACDBDICTIONARYWDFLT
  2
AcDbDictionaryWithDefault
  3
AutoCAD 2000
 90
0
 91
1
280
0
281
0
  0
CLASS
  1
ACDBPLACEHOLDER
  2
AcDbPlaceHolder
  3
AutoCAD 2000
 90
0
 91
1
280
0
281
0
  0
CLASS
  1
LAYOUT
  2
AcDbLayout
  3
AutoCAD 2000
 90
0
 91
0
280
0
281
0
  0
CLASS
  1
TABLESTYLE
  2
AcDbTableStyle
  3
ObjectDBX Classes
 90
2047
 91
1
280
0
281
0
  0
CLASS
  1
ACAD_TABLE
  2
AcDbTable
  3
ObjectDBX Classes
 90
1025
 91
2
280
0
281
1
  0
ENDSEC
  0
SECTION
  2
TABLES
  0
TABLE
  2
VPORT
  5
8
100
AcDbSymbolTable
 70
2
  0
VPORT
  5
1F4
100
AcDbSymbolTableRecord
100
AcDbViewportTableRecord
  2
*ACTIVE
 70
0
 10
0.0
 20
0.0
 11
1.0
 21
1.0
 12
105.0
 22
148.5
 13
0.0
 23
0.0
 14
1.0
 24
1.0
 15
0.0
 25
0.0
 16
0.0
 26
0.0
 36
1.0
 17
0.0
 27
0.0
 37
0.0
 40
297.0
 41
0.7070707071
 42
50.0
 43
0.0
 44
0.0
 50
0.0
 51
0.0
 71
0
 72
100
 73
1
 74
1
 75
0
 76
0
 77
0
 78
0
  0
ENDTAB
  0
TABLE
  2
LTYPE
  5
5
100
AcDbSymbolTable
 70
6
  0
LTYPE
  5
14
100
AcDbSymbolTableRecord
100
AcDbLinetypeTableRecord
  2
BYBLOCK
 70
0
  3

 72
65
 73
0
 40
0.0
  0
LTYPE
  5
15
100
AcDbSymbolTableRecord
100
AcDbLinetypeTableRecord
  2
BYLAYER
 70
0
  3

 72
65
 73
0
 40
0.0
  0
LTYPE
  5
16
100
AcDbSymbolTableRecord
100
AcDbLinetypeTableRecord
  2
CONTINUOUS
 70
64
  3
Solid line
 72
65
 73
0
 40
0.0
  0
LTYPE
  5
1F5
100
AcDbSymbolTableRecord
100
AcDbLinetypeTableRecord
  2
CENTER
 70
64
  3
____ _ ____ _ ____ _ ____ _ ____ _ ____ _ ____
 72
65
 73
4
 40
0.6
 49
0.375
 74
0
 49
-0.075
 74
0
 49
0.075
 74
0
 49
-0.075
 74
0
  0
LTYPE
  5
1F6
100
AcDbSymbolTableRecord
100
AcDbLinetypeTableRecord
  2
HIDDEN
 70
64
  3
- - - - - - - - - - - - - - - - - - - -
 72
65
 73
2
 40
0.2
 49
0.1
 74
0
 49
-0.1
 74
0
  0
LTYPE
  5
1F7
100
AcDbSymbolTableRecord
100
AcDbLinetypeTableRecord
  2
PHANTOM
 70
64
  3
_____ _ _ _____ _ _ _____ _ _ _____
 72
65
 73
6
 40
0.8
 49
0.45
 74
0
 49
-0.05
 74
0
 49
0.1
 74
0
 49
-0.05
 74
0
 49
0.1
 74
0
 49
-0.05
 74
0
  0
LTYPE
  5
1F8
100
AcDbSymbolTableRecord
100
AcDbLinetypeTableRecord
  2
DOT
 70
64
  3
. . . . . . . . . . . . . . . . . . . .
 72
65
 73
2
 40
0.2
 49
0.1
 74
0
 49
-0.1
 74
0
  0
LTYPE
  5
1F9
100
AcDbSymbolTableRecord
100
AcDbLinetypeTableRecord
  2
DASHED
 70
64
  3
- - - - - - - - - - - - - - - - - - - -
 72
65
 73
2
 40
0.2
 49
0.1
 74
0
 49
-0.1
 74
0
  0
ENDTAB
  0
TABLE
  2
LAYER
  5
2
100
AcDbSymbolTable
 70
36
  0
LAYER
  5
10
100
AcDbSymbolTableRecord
100
AcDbLayerTableRecord
  2
0
 70
0
 62
7
  6
CONTINUOUS
370
-3
390
F
  0
LAYER
  5
1FA
100
AcDbSymbolTableRecord
100
AcDbLayerTableRecord
  2
DEFAULT_1
 70
0
 62
7
  6
CENTER
370
-3
390
F
  0
LAYER
  5
1FB
100
AcDbSymbolTableRecord
100
AcDbLayerTableRecord
  2
DEFAULT_2
 70
0
 62
8
  6
HIDDEN
370
-3
390
F
  0
LAYER
  5
1FC
100
AcDbSymbolTableRecord
100
AcDbLayerTableRecord
  2
DEFAULT_3
 70
0
 62
7
  6
PHANTOM
370
-3
390
F
  0
LAYER
  5
1FD
100
AcDbSymbolTableRecord
100
AcDbLayerTableRecord
  2
BEZUGSACHSEN
 70
0
 62
7
  6
CONTINUOUS
370
-3
390
F
  0
LAYER
  5
1FE
100
AcDbSymbolTableRecord
100
AcDbLayerTableRecord
  2
FLAECHENVERBUND
 70
0
 62
7
  6
CONTINUOUS
370
-3
390
F
  0
LAYER
  5
1FF
100
AcDbSymbolTableRecord
100
AcDbLayerTableRecord
  2
FORM-LAGETOLERANZEN
 70
0
 62
7
  6
CONTINUOUS
370
-3
390
F
  0
LAYER
  5
200
100
AcDbSymbolTableRecord
100
AcDbLayerTableRecord
  2
KONSTRUKTIONSELEMENTE
 70
0
 62
7
  6
CONTINUOUS
370
-3
390
F
  0
LAYER
  5
201
100
AcDbSymbolTableRecord
100
AcDbLayerTableRecord
  2
XSEC_DATUMS
 70
0
 62
7
  6
CONTINUOUS
370
-3
390
F
  0
LAYER
  5
202
100
AcDbSymbolTableRecord
100
AcDbLayerTableRecord
  2
ZEICHNUNGSBEMASSUNGEN
 70
0
 62
7
  6
CONTINUOUS
370
-3
390
F
  0
ENDTAB
  0
TABLE
  2
STYLE
  5
3
100
AcDbSymbolTable
 70
1
  0
STYLE
  5
11
100
AcDbSymbolTableRecord
100
AcDbTextStyleTableRecord
  2
STANDARD
 70
0
 40
0.0
 41
0.7
 50
0.0
 71
0
 42
0.2
  3
txt
  4

  0
STYLE
  5
203
100
AcDbSymbolTableRecord
100
AcDbTextStyleTableRecord
  2
TEXTSTYLE_1
 70
0
 40
0.0
 41
0.8
 50
0.0
 71
0
 42
0.2
  3
gdt
  4

  0
STYLE
  5
204
100
AcDbSymbolTableRecord
100
AcDbTextStyleTableRecord
  2
TEXTSTYLE_2
 70
0
 40
0.0
 41
0.7
 50
0.0
 71
0
 42
0.2
  3
gdt
  4

  0
STYLE
  5
205
100
AcDbSymbolTableRecord
100
AcDbTextStyleTableRecord
  2
TEXTSTYLE_3
 70
0
 40
0.0
 41
0.6
 50
0.0
 71
0
 42
0.2
  3
txt
  4

  0
STYLE
  5
206
100
AcDbSymbolTableRecord
100
AcDbTextStyleTableRecord
  2
TEXTSTYLE_4
 70
0
 40
0.0
 41
0.8
 50
0.0
 71
0
 42
0.2
  3
txt
  4

  0
ENDTAB
  0
TABLE
  2
VIEW
  5
6
100
AcDbSymbolTable
 70
0
  0
ENDTAB
  0
TABLE
  2
UCS
  5
7
100
AcDbSymbolTable
 70
0
  0
ENDTAB
  0
TABLE
  2
APPID
  5
9
100
AcDbSymbolTable
 70
1
  0
APPID
  5
207
100
AcDbSymbolTableRecord
100
AcDbRegAppTableRecord
  2
ACAD
 70
0
  0
ENDTAB
  0
TABLE
  2
BLOCK_RECORD
  5
1
100
AcDbSymbolTable
 70
0
  0
BLOCK_RECORD
  5
208
100
AcDbSymbolTableRecord
100
AcDbBlockTableRecord
  2
*Model_Space
  0
BLOCK_RECORD
  5
209
100
AcDbSymbolTableRecord
100
AcDbBlockTableRecord
  2
*Paper_Space
  0
BLOCK_RECORD
  5
20A
100
AcDbSymbolTableRecord
100
AcDbBlockTableRecord
  2
_FILLED
  0
BLOCK_RECORD
  5
20B
100
AcDbSymbolTableRecord
100
AcDbBlockTableRecord
  2
*D0
  0
BLOCK_RECORD
  5
20C
100
AcDbSymbolTableRecord
100
AcDbBlockTableRecord
  2
*D1
  0
BLOCK_RECORD
  5
20D
100
AcDbSymbolTableRecord
100
AcDbBlockTableRecord
  2
*D2
  0
BLOCK_RECORD
  5
20E
100
AcDbSymbolTableRecord
100
AcDbBlockTableRecord
  2
*D3
  0
BLOCK_RECORD
  5
20F
100
AcDbSymbolTableRecord
100
AcDbBlockTableRecord
  2
*D4
  0
BLOCK_RECORD
  5
210
100
AcDbSymbolTableRecord
100
AcDbBlockTableRecord
  2
*D5
  0
BLOCK_RECORD
  5
211
100
AcDbSymbolTableRecord
100
AcDbBlockTableRecord
  2
*D6
  0
BLOCK_RECORD
  5
212
100
AcDbSymbolTableRecord
100
AcDbBlockTableRecord
  2
*D7
  0
BLOCK_RECORD
  5
213
100
AcDbSymbolTableRecord
100
AcDbBlockTableRecord
  2
*D8
  0
BLOCK_RECORD
  5
214
100
AcDbSymbolTableRecord
100
AcDbBlockTableRecord
  2
*D9
  0
BLOCK_RECORD
  5
215
100
AcDbSymbolTableRecord
100
AcDbBlockTableRecord
  2
*T1
  0
BLOCK_RECORD
  5
216
100
AcDbSymbolTableRecord
100
AcDbBlockTableRecord
  2
*T2
  0
ENDTAB
  0
TABLE
  2
DIMSTYLE
  5
A
100
AcDbSymbolTable
 70
1
100
AcDbDimStyleTable
 71
0
  0
DIMSTYLE
105
217
100
AcDbSymbolTableRecord
100
AcDbDimStyleTableRecord
  2
STANDARD
 70
0
  3

  4

 40
1.0
 41
3.5
 42
0.0625
 43
0.38
 44
0.18
 45
0.0
 46
0.0
 47
0.005
 48
0.005
140
2.5
141
0.09
142
0.0
143
25.4
144
1.0
145
0.0
146
1.0
147
0.09
 71
1.0
 72
0.0
 73
0
 74
0
 75
0
 76
0
 77
1
 78
8
170
0
171
2
172
0
173
0
174
0
175
0
176
0
177
0
178
5
270
2
271
3
272
3
273
2
274
2
275
0
280
0
281
0
282
0
283
1
284
8
285
0
286
0
287
3
288
0
340
11
341
20A
342
20A
343
20A
344
20A
  0
DIMSTYLE
105
218
100
AcDbSymbolTableRecord
100
AcDbDimStyleTableRecord
  2
DIMSTYLE_1
 70
0
  3

  4

 40
1.0
 41
3.5
 42
0.0625
 43
0.38
 44
0.18
 45
0.0
 46
0.0
 47
0.1
 48
0.1
140
2.5
141
0.09
142
0.0
143
25.4
144
1.0
145
0.0
146
1.0
147
0.09
 71
0.0
 72
0.0
 73
0
 74
0
 75
0
 76
0
 77
1
 78
8
170
0
171
2
172
0
173
0
174
0
175
0
176
0
177
0
178
5
270
2
271
0
272
0
273
2
274
2
275
0
280
0
281
0
282
0
283
1
284
8
285
0
286
0
287
3
288
0
340
11
341
20A
342
20A
343
20A
344
20A
  0
DIMSTYLE
105
219
100
AcDbSymbolTableRecord
100
AcDbDimStyleTableRecord
  2
DIMSTYLE_2
 70
0
  3

  4

 40
1.0
 41
3.5
 42
0.0625
 43
0.38
 44
0.18
 45
0.0
 46
0.0
 47
0.2
 48
0.2
140
2.5
141
0.09
142
0.0
143
25.4
144
0.5
145
0.0
146
1.0
147
0.09
 71
1.0
 72
0.0
 73
0
 74
0
 75
0
 76
0
 77
1
 78
8
170
0
171
2
172
0
173
0
174
0
175
0
176
0
177
0
178
5
270
2
271
2
272
2
273
2
274
2
275
0
280
0
281
0
282
0
283
1
284
8
285
0
286
0
287
3
288
0
340
11
341
20A
342
20A
343
20A
344
20A
  0
DIMSTYLE
105
21A
100
AcDbSymbolTableRecord
100
AcDbDimStyleTableRecord
  2
DIMSTYLE_3
 70
0
  3

  4

 40
1.0
 41
3.5
 42
0.0625
 43
0.38
 44
0.18
 45
0.0
 46
0.0
 47
0.0
 48
0.4
140
2.5
141
0.09
142
0.0
143
25.4
144
0.5
145
0.0
146
0.6
147
0.09
 71
1.0
 72
0.0
 73
0
 74
0
 75
0
 76
0
 77
1
 78
8
170
0
171
2
172
0
173
0
174
0
175
0
176
0
177
0
178
5
270
2
271
2
272
2
273
2
274
2
275
0
280
0
281
0
282
0
283
1
284
8
285
0
286
0
287
3
288
0
340
11
341
20A
342
20A
343
20A
344
20A
  0
DIMSTYLE
105
21B
100
AcDbSymbolTableRecord
100
AcDbDimStyleTableRecord
  2
DIMSTYLE_4
 70
0
  3

  4

 40
1.0
 41
3.5
 42
0.0625
 43
0.38
 44
0.18
 45
0.0
 46
0.0
 47
0.5
 48
0.5
140
2.5
141
0.09
142
0.0
143
25.4
144
1.0
145
0.0
146
1.0
147
0.09
 71
1.0
 72
0.0
 73
0
 74
0
 75
0
 76
0
 77
1
 78
8
170
0
171
2
172
0
173
0
174
0
175
0
176
0
177
0
178
5
270
2
271
3
272
3
273
2
274
2
275
0
280
0
281
0
282
0
283
1
284
8
285
0
286
0
287
3
288
0
340
11
341
20A
342
20A
343
20A
344
20A
  0
DIMSTYLE
105
21C
100
AcDbSymbolTableRecord
100
AcDbDimStyleTableRecord
  2
DIMSTYLE_5
 70
0
  3

  4

 40
1.0
 41
3.5
 42
0.0625
 43
0.38
 44
0.18
 45
0.0
 46
0.0
 47
0.1
 48
0.1
140
2.5
141
0.09
142
0.0
143
25.4
144
0.5
145
0.0
146
1.0
147
0.09
 71
1.0
 72
0.0
 73
0
 74
0
 75
0
 76
0
 77
1
 78
8
170
0
171
2
172
0
173
0
174
0
175
0
176
0
177
0
178
5
270
2
271
2
272
2
273
2
274
2
275
0
280
0
281
0
282
0
283
1
284
8
285
0
286
0
287
3
288
0
340
11
341
20A
342
20A
343
20A
344
20A
  0
DIMSTYLE
105
21D
100
AcDbSymbolTableRecord
100
AcDbDimStyleTableRecord
  2
DIMSTYLE_6
 70
0
  3

  4

 40
1.0
 41
3.5
 42
0.0625
 43
0.38
 44
0.18
 45
0.0
 46
0.0
 47
0.3
 48
0.3
140
2.5
141
0.09
142
0.0
143
25.4
144
1.0
145
0.0
146
1.0
147
0.09
 71
1.0
 72
0.0
 73
0
 74
0
 75
0
 76
0
 77
1
 78
8
170
0
171
2
172
0
173
0
174
0
175
0
176
0
177
0
178
5
270
2
271
2
272
2
273
2
274
2
275
0
280
0
281
0
282
0
283
1
284
8
285
0
286
0
287
3
288
0
340
11
341
20A
342
20A
343
20A
344
20A
  0
DIMSTYLE
105
21E
100
AcDbSymbolTableRecord
100
AcDbDimStyleTableRecord
  2
DIMSTYLE_7
 70
0
  3

  4

 40
1.0
 41
3.5
 42
0.0625
 43
0.38
 44
0.18
 45
0.0
 46
0.0
 47
0.0
 48
0.2
140
2.5
141
0.09
142
0.0
143
25.4
144
1.0
145
0.0
146
0.6
147
0.09
 71
1.0
 72
0.0
 73
0
 74
0
 75
0
 76
0
 77
1
 78
8
170
0
171
2
172
0
173
0
174
0
175
0
176
0
177
0
178
5
270
2
271
2
272
2
273
2
274
2
275
0
280
0
281
0
282
0
283
1
284
8
285
0
286
0
287
3
288
0
340
11
341
20A
342
20A
343
20A
344
20A
  0
DIMSTYLE
105
21F
100
AcDbSymbolTableRecord
100
AcDbDimStyleTableRecord
  2
DIMSTYLE_8
 70
0
  3

  4

 40
1.0
 41
3.5
 42
0.0625
 43
0.38
 44
0.18
 45
0.0
 46
0.0
 47
0.1
 48
0.1
140
2.5
141
0.09
142
0.0
143
25.4
144
1.0
145
0.0
146
1.0
147
0.09
 71
0.0
 72
0.0
 73
0
 74
0
 75
0
 76
0
 77
1
 78
8
170
0
171
2
172
0
173
0
174
0
175
0
176
0
177
0
178
5
270
2
271
2
272
2
273
2
274
2
275
0
280
0
281
0
282
0
283
1
284
8
285
0
286
0
287
3
288
0
340
11
341
20A
342
20A
343
20A
344
20A
  0
ENDTAB
  0
ENDSEC
  0
SECTION
  2
BLOCKS
  0
BLOCK
  5
20
100
AcDbEntity
  8
0
100
AcDbBlockBegin
  2
*Model_Space
 70
0
 10
0.0
 20
0.0
 30
0.0
  3
*Model_Space
  1

  0
ENDBLK
  5
21
100
AcDbEntity
  8
0
100
AcDbBlockEnd
  0
BLOCK
  5
1C
100
AcDbEntity
  8
0
100
AcDbBlockBegin
  2
*Paper_Space
 70
0
 10
0.0
 20
0.0
 30
0.0
  3
*Paper_Space
  1

  0
ENDBLK
  5
1D
100
AcDbEntity
  8
0
100
AcDbBlockEnd
  0
BLOCK
  5
220
100
AcDbEntity
  8
0
100
AcDbBlockBegin
  2
_FILLED
 70
64
 10
0.0
 20
0.0
  3
_FILLED
  1

  0
SOLID
  5
221
100
AcDbEntity
  8
0
  6
BYBLOCK
 62
0
100
AcDbTrace
 10
0.0
 20
0.0
 11
-1.0
 21
0.125
 12
-1.0
 22
-0.125
 13
-1.0
 23
-0.125
  0
ENDBLK
  5
222
100
AcDbEntity
  8
0
  6
BYBLOCK
 62
0
100
AcDbBlockEnd
  0
BLOCK
  5
223
100
AcDbEntity
  8
ZEICHNUNGSBEMASSUNGEN
100
AcDbBlockBegin
 62
2
  6
CONTINUOUS
  2
*D0
 70
65
 10
0.0
 20
0.0
  3
*D0
  1

  0
MTEXT
  5
224
100
AcDbEntity
  8
ZEICHNUNGSBEMASSUNGEN
100
AcDbMText
 62
5
  6
CONTINUOUS
  7
STANDARD
 71
1
 72
1
 10
171.1288602483
 20
202.3852081978
 30
0.0
 11
1.0
 21
0.0
 31
0.0
 44
0.9
  1
(4)
 40
2.5
 41
4.1071428571
  0
LINE
  5
225
100
AcDbEntity
  8
ZEICHNUNGSBEMASSUNGEN
100
AcDbLine
 62
2
  6
CONTINUOUS
 10
165.2684450228
 20
209.7102081978
 11
165.2684450228
 21
197.7602081978
  0
LINE
  5
226
100
AcDbEntity
  8
ZEICHNUNGSBEMASSUNGEN
100
AcDbLine
 62
2
  6
CONTINUOUS
 10
161.2684450228
 20
209.3602081978
 11
161.2684450228
 21
197.7602081978
  0
LINE
  5
227
100
AcDbEntity
  8
ZEICHNUNGSBEMASSUNGEN
100
AcDbLine
 62
2
  6
CONTINUOUS
 10
165.2684450228
 20
199.2602081978
 11
175.2360031054
 21
199.2602081978
  0
LINE
  5
228
100
AcDbEntity
  8
ZEICHNUNGSBEMASSUNGEN
100
AcDbLine
 62
2
  6
CONTINUOUS
 10
175.2360031054
 20
199.2602081978
 11
163.2684450228
 21
199.2602081978
  0
LINE
  5
229
100
AcDbEntity
  8
ZEICHNUNGSBEMASSUNGEN
100
AcDbLine
 62
2
  6
CONTINUOUS
 10
161.2684450228
 20
199.2602081978
 11
155.2684450228
 21
199.2602081978
  0
LINE
  5
22A
100
AcDbEntity
  8
ZEICHNUNGSBEMASSUNGEN
100
AcDbLine
 62
2
  6
CONTINUOUS
 10
155.2684450228
 20
199.2602081978
 11
163.2684450228
 21
199.2602081978
  0
INSERT
  5
22B
100
AcDbEntity
  8
ZEICHNUNGSBEMASSUNGEN
100
AcDbBlockReference
 62
2
  6
CONTINUOUS
  2
_FILLED
 10
165.2684450228
 20
199.2602081978
 41
3.5
 42
3.5
 43
3.5
 50
180.0
  0
INSERT
  5
22C
100
AcDbEntity
  8
ZEICHNUNGSBEMASSUNGEN
100
AcDbBlockReference
 62
2
  6
CONTINUOUS
  2
_FILLED
 10
161.2684450228
 20
199.2602081978
 41
3.5
 42
3.5
 43
3.5
  0
ENDBLK
  5
22D
100
AcDbEntity
  8
0
  6
BYBLOCK
 62
0
100
AcDbBlockEnd
  0
BLOCK
  5
22E
100
AcDbEntity
  8
0
100
AcDbBlockBegin
 62
2
  6
CONTINUOUS
  2
*D1
 70
65
 10
0.0
 20
0.0
  3
*D1
  1

  0
TEXT
  5
22F
100
AcDbEntity
  8
0
100
AcDbText
 62
5
  6
CONTINUOUS
 10
109.2494462001
 20
133.7234059857
  7
STANDARD
 40
2.5
  1
15
 41
0.6428571429
 72
1
 11
110.8565890572
 21
133.7234059857
100
AcDbText
  0
TEXT
  5
230
100
AcDbEntity
  8
0
100
AcDbText
 62
5
  6
CONTINUOUS
 10
112.4637319144
 20
133.7234059857
  7
TEXTSTYLE_2
 40
2.5
  1
`
 41
1.0
 72
1
 11
113.9220652477
 21
133.7234059857
100
AcDbText
  0
TEXT
  5
231
100
AcDbEntity
  8
0
100
AcDbText
 62
5
  6
CONTINUOUS
 10
115.380398581
 20
133.7234059857
  7
STANDARD
 40
2.5
  1
0.2
 41
0.7142857143
 72
1
 11
118.0589700096
 21
133.7234059857
100
AcDbText
  0
LINE
  5
232
100
AcDbEntity
  8
0
100
AcDbLine
 62
2
  6
CONTINUOUS
 10
99.9934938191
 20
147.8484059857
 11
99.9934938191
 21
130.3484059857
  0
LINE
  5
233
100
AcDbEntity
  8
0
100
AcDbLine
 62
2
  6
CONTINUOUS
 10
129.9934938191
 20
147.8484059857
 11
129.9934938191
 21
130.3484059857
  0
LINE
  5
234
100
AcDbEntity
  8
0
100
AcDbLine
 62
2
  6
CONTINUOUS
 10
99.9934938191
 20
131.8484059857
 11
114.9934938191
 21
131.8484059857
  0
LINE
  5
235
100
AcDbEntity
  8
0
100
AcDbLine
 62
2
  6
CONTINUOUS
 10
129.9934938191
 20
131.8484059857
 11
114.9934938191
 21
131.8484059857
  0
INSERT
  5
236
100
AcDbEntity
  8
0
100
AcDbBlockReference
 62
2
  6
CONTINUOUS
  2
_FILLED
 10
99.9934938191
 20
131.8484059857
 41
3.5
 42
3.5
 43
3.5
 50
180.0
  0
INSERT
  5
237
100
AcDbEntity
  8
0
100
AcDbBlockReference
 62
2
  6
CONTINUOUS
  2
_FILLED
 10
129.9934938191
 20
131.8484059857
 41
3.5
 42
3.5
 43
3.5
  0
ENDBLK
  5
238
100
AcDbEntity
  8
0
  6
BYBLOCK
 62
0
100
AcDbBlockEnd
  0
BLOCK
  5
239
100
AcDbEntity
  8
0
100
AcDbBlockBegin
 62
2
  6
CONTINUOUS
  2
*D2
 70
65
 10
0.0
 20
0.0
  3
*D2
  1

  0
TEXT
  5
23A
100
AcDbEntity
  8
0
100
AcDbText
 62
5
  6
CONTINUOUS
 10
90.2434938191
 20
153.7055488428
  7
TEXTSTYLE_3
 40
1.5
  1
 0
 50
90.0
 41
0.7857142857
 72
1
 11
90.2434938191
 21
154.8841202714
100
AcDbText
  0
TEXT
  5
23B
100
AcDbEntity
  8
0
100
AcDbText
 62
5
  6
CONTINUOUS
 10
91.7434938191
 20
148.7055488428
  7
STANDARD
 40
2.5
  1
5.5
 50
90.0
 41
0.6666666667
 72
1
 11
91.7434938191
 21
151.2055488428
100
AcDbText
  0
TEXT
  5
23C
100
AcDbEntity
  8
0
100
AcDbText
 62
5
  6
CONTINUOUS
 10
92.2434938191
 20
153.7055488428
  7
TEXTSTYLE_3
 40
1.5
  1
-0.4
 50
90.0
 41
0.7142857143
 72
1
 11
92.2434938191
 21
155.8484059857
100
AcDbText
  0
LINE
  5
23D
100
AcDbEntity
  8
0
100
AcDbLine
 62
2
  6
CONTINUOUS
 10
99.9934938191
 20
147.8484059857
 11
91.4934938191
 21
147.8484059857
  0
LINE
  5
23E
100
AcDbEntity
  8
0
100
AcDbLine
 62
2
  6
CONTINUOUS
 10
106.8934938191
 20
158.8484059857
 11
91.4934938191
 21
158.8484059857
  0
LINE
  5
23F
100
AcDbEntity
  8
0
100
AcDbLine
 62
2
  6
CONTINUOUS
 10
92.9934938191
 20
147.8484059857
 11
92.9934938191
 21
141.8484059857
  0
LINE
  5
240
100
AcDbEntity
  8
0
100
AcDbLine
 62
2
  6
CONTINUOUS
 10
92.9934938191
 20
141.8484059857
 11
92.9934938191
 21
153.3484059857
  0
LINE
  5
241
100
AcDbEntity
  8
0
100
AcDbLine
 62
2
  6
CONTINUOUS
 10
92.9934938191
 20
158.8484059857
 11
92.9934938191
 21
164.8484059857
  0
LINE
  5
242
100
AcDbEntity
  8
0
100
AcDbLine
 62
2
  6
CONTINUOUS
 10
92.9934938191
 20
164.8484059857
 11
92.9934938191
 21
153.3484059857
  0
INSERT
  5
243
100
AcDbEntity
  8
0
100
AcDbBlockReference
 62
2
  6
CONTINUOUS
  2
_FILLED
 10
92.9934938191
 20
147.8484059857
 41
3.5
 42
3.5
 43
3.5
 50
90.0
  0
INSERT
  5
244
100
AcDbEntity
  8
0
100
AcDbBlockReference
 62
2
  6
CONTINUOUS
  2
_FILLED
 10
92.9934938191
 20
158.8484059857
 41
3.5
 42
3.5
 43
3.5
 50
270.0
  0
ENDBLK
  5
245
100
AcDbEntity
  8
0
  6
BYBLOCK
 62
0
100
AcDbBlockEnd
  0
BLOCK
  5
246
100
AcDbEntity
  8
0
100
AcDbBlockBegin
 62
2
  6
CONTINUOUS
  2
*D3
 70
65
 10
0.0
 20
0.0
  3
*D3
  1

  0
TEXT
  5
247
100
AcDbEntity
  8
0
100
AcDbText
 62
5
  6
CONTINUOUS
 10
106.2346843249
 20
236.8852081978
  7
STANDARD
 40
2.5
  1
104
 41
0.7142857143
 72
1
 11
108.9132557535
 21
236.8852081978
100
AcDbText
  0
TEXT
  5
248
100
AcDbEntity
  8
0
100
AcDbText
 62
5
  6
CONTINUOUS
 10
111.5918271821
 20
236.8852081978
  7
TEXTSTYLE_2
 40
2.5
  1
`
 41
1.0
 72
1
 11
113.0501605154
 21
236.8852081978
100
AcDbText
  0
TEXT
  5
249
100
AcDbEntity
  8
0
100
AcDbText
 62
5
  6
CONTINUOUS
 10
114.5084938487
 20
236.8852081978
  7
STANDARD
 40
2.5
  1
0.5
 41
0.6904761905
 72
1
 11
117.097779563
 21
236.8852081978
100
AcDbText
  0
LINE
  5
24A
100
AcDbEntity
  8
0
100
AcDbLine
 62
2
  6
CONTINUOUS
 10
165.2684450228
 20
219.5102081978
 11
165.2684450228
 21
237.7602081978
  0
LINE
  5
24B
100
AcDbEntity
  8
0
100
AcDbLine
 62
2
  6
CONTINUOUS
 10
61.2684450228
 20
219.5102081978
 11
61.2684450228
 21
237.7602081978
  0
LINE
  5
24C
100
AcDbEntity
  8
0
100
AcDbLine
 62
2
  6
CONTINUOUS
 10
165.2684450228
 20
236.2602081978
 11
113.2684450228
 21
236.2602081978
  0
LINE
  5
24D
100
AcDbEntity
  8
0
100
AcDbLine
 62
2
  6
CONTINUOUS
 10
61.2684450228
 20
236.2602081978
 11
113.2684450228
 21
236.2602081978
  0
INSERT
  5
24E
100
AcDbEntity
  8
0
100
AcDbBlockReference
 62
2
  6
CONTINUOUS
  2
_FILLED
 10
165.2684450228
 20
236.2602081978
 41
3.5
 42
3.5
 43
3.5
  0
INSERT
  5
24F
100
AcDbEntity
  8
0
100
AcDbBlockReference
 62
2
  6
CONTINUOUS
  2
_FILLED
 10
61.2684450228
 20
236.2602081978
 41
3.5
 42
3.5
 43
3.5
 50
180.0
  0
ENDBLK
  5
250
100
AcDbEntity
  8
0
  6
BYBLOCK
 62
0
100
AcDbBlockEnd
  0
BLOCK
  5
251
100
AcDbEntity
  8
0
100
AcDbBlockBegin
 62
2
  6
CONTINUOUS
  2
*D4
 70
65
 10
0.0
 20
0.0
  3
*D4
  1

  0
TEXT
  5
252
100
AcDbEntity
  8
0
100
AcDbText
 62
5
  6
CONTINUOUS
 10
108.2673033429
 20
140.4734059857
  7
STANDARD
 40
2.5
  1
8.5
 41
0.6904761905
 72
1
 11
110.8565890572
 21
140.4734059857
100
AcDbText
  0
TEXT
  5
253
100
AcDbEntity
  8
0
100
AcDbText
 62
5
  6
CONTINUOUS
 10
113.4458747715
 20
140.4734059857
  7
TEXTSTYLE_2
 40
2.5
  1
`
 41
1.0
 72
1
 11
114.9042081048
 21
140.4734059857
100
AcDbText
  0
TEXT
  5
254
100
AcDbEntity
  8
0
100
AcDbText
 62
5
  6
CONTINUOUS
 10
116.3625414382
 20
140.4734059857
  7
STANDARD
 40
2.5
  1
0.2
 41
0.7142857143
 72
1
 11
119.0411128667
 21
140.4734059857
100
AcDbText
  0
LINE
  5
255
100
AcDbEntity
  8
0
100
AcDbLine
 62
2
  6
CONTINUOUS
 10
123.4934938191
 20
150.8484059857
 11
123.4934938191
 21
138.3484059857
  0
LINE
  5
256
100
AcDbEntity
  8
0
100
AcDbLine
 62
2
  6
CONTINUOUS
 10
106.4934938191
 20
150.8484059857
 11
106.4934938191
 21
138.3484059857
  0
LINE
  5
257
100
AcDbEntity
  8
0
100
AcDbLine
 62
2
  6
CONTINUOUS
 10
123.4934938191
 20
139.8484059857
 11
129.4934938191
 21
139.8484059857
  0
LINE
  5
258
100
AcDbEntity
  8
0
100
AcDbLine
 62
2
  6
CONTINUOUS
 10
129.4934938191
 20
139.8484059857
 11
114.9934938191
 21
139.8484059857
  0
LINE
  5
259
100
AcDbEntity
  8
0
100
AcDbLine
 62
2
  6
CONTINUOUS
 10
106.4934938191
 20
139.8484059857
 11
100.4934938191
 21
139.8484059857
  0
LINE
  5
25A
100
AcDbEntity
  8
0
100
AcDbLine
 62
2
  6
CONTINUOUS
 10
100.4934938191
 20
139.8484059857
 11
114.9934938191
 21
139.8484059857
  0
INSERT
  5
25B
100
AcDbEntity
  8
0
100
AcDbBlockReference
 62
2
  6
CONTINUOUS
  2
_FILLED
 10
123.4934938191
 20
139.8484059857
 41
3.5
 42
3.5
 43
3.5
 50
180.0
  0
INSERT
  5
25C
100
AcDbEntity
  8
0
100
AcDbBlockReference
 62
2
  6
CONTINUOUS
  2
_FILLED
 10
106.4934938191
 20
139.8484059857
 41
3.5
 42
3.5
 43
3.5
  0
ENDBLK
  5
25D
100
AcDbEntity
  8
0
  6
BYBLOCK
 62
0
100
AcDbBlockEnd
  0
BLOCK
  5
25E
100
AcDbEntity
  8
0
100
AcDbBlockBegin
 62
2
  6
CONTINUOUS
  2
*D5
 70
65
 10
0.0
 20
0.0
  3
*D5
  1

  0
TEXT
  5
25F
100
AcDbEntity
  8
0
100
AcDbText
 62
5
  6
CONTINUOUS
 10
144.3684938191
 20
134.2780333568
  7
STANDARD
 40
2.5
  1
1
 50
90.0
 41
0.5714285714
 72
2
 11
144.3684938191
 21
135.7066047853
100
AcDbText
  0
TEXT
  5
260
100
AcDbEntity
  8
0
100
AcDbText
 62
5
  6
CONTINUOUS
 10
144.3684938191
 20
135.7066047853
  7
TEXTSTYLE_2
 40
2.5
  1
`
 50
90.0
 41
1.0
 72
2
 11
144.3684938191
 21
138.623271452
100
AcDbText
  0
TEXT
  5
261
100
AcDbEntity
  8
0
100
AcDbText
 62
5
  6
CONTINUOUS
 10
144.3684938191
 20
138.623271452
  7
STANDARD
 40
2.5
  1
0.1
 50
90.0
 41
0.6428571429
 72
2
 11
144.3684938191
 21
143.4447000234
100
AcDbText
  0
LINE
  5
262
100
AcDbEntity
  8
0
100
AcDbLine
 62
2
  6
CONTINUOUS
 10
130.1813758159
 20
147.8484059857
 11
146.4934938191
 21
147.8484059857
  0
LINE
  5
263
100
AcDbEntity
  8
0
100
AcDbLine
 62
2
  6
CONTINUOUS
 10
126.753719363
 20
149.8484059857
 11
146.4934938191
 21
149.8484059857
  0
LINE
  5
264
100
AcDbEntity
  8
0
100
AcDbLine
 62
2
  6
CONTINUOUS
 10
144.9934938191
 20
147.8484059857
 11
144.9934938191
 21
134.2780333568
  0
LINE
  5
265
100
AcDbEntity
  8
0
100
AcDbLine
 62
2
  6
CONTINUOUS
 10
144.9934938191
 20
134.2780333568
 11
144.9934938191
 21
148.8484059857
  0
LINE
  5
266
100
AcDbEntity
  8
0
100
AcDbLine
 62
2
  6
CONTINUOUS
 10
144.9934938191
 20
149.8484059857
 11
144.9934938191
 21
155.8484059857
  0
LINE
  5
267
100
AcDbEntity
  8
0
100
AcDbLine
 62
2
  6
CONTINUOUS
 10
144.9934938191
 20
155.8484059857
 11
144.9934938191
 21
148.8484059857
  0
INSERT
  5
268
100
AcDbEntity
  8
0
100
AcDbBlockReference
 62
2
  6
CONTINUOUS
  2
_FILLED
 10
144.9934938191
 20
147.8484059857
 41
3.5
 42
3.5
 43
3.5
 50
90.0
  0
INSERT
  5
269
100
AcDbEntity
  8
0
100
AcDbBlockReference
 62
2
  6
CONTINUOUS
  2
_FILLED
 10
144.9934938191
 20
149.8484059857
 41
3.5
 42
3.5
 43
3.5
 50
270.0
  0
ENDBLK
  5
26A
100
AcDbEntity
  8
0
  6
BYBLOCK
 62
0
100
AcDbBlockEnd
  0
BLOCK
  5
26B
100
AcDbEntity
  8
0
100
AcDbBlockBegin
 62
2
  6
CONTINUOUS
  2
*D6
 70
65
 10
0.0
 20
0.0
  3
*D6
  1

  0
TEXT
  5
26C
100
AcDbEntity
  8
0
100
AcDbText
 62
5
  6
CONTINUOUS
 10
107.2565402609
 20
191.8852081978
  7
STANDARD
 40
2.5
  1
96
 41
0.7857142857
 72
1
 11
109.2208259752
 21
191.8852081978
100
AcDbText
  0
TEXT
  5
26D
100
AcDbEntity
  8
0
100
AcDbText
 62
5
  6
CONTINUOUS
 10
111.1851116894
 20
191.8852081978
  7
TEXTSTYLE_2
 40
2.5
  1
`
 41
1.0
 72
1
 11
112.6434450228
 21
191.8852081978
100
AcDbText
  0
TEXT
  5
26E
100
AcDbEntity
  8
0
100
AcDbText
 62
5
  6
CONTINUOUS
 10
114.1017783561
 20
191.8852081978
  7
STANDARD
 40
2.5
  1
0.3
 41
0.6904761905
 72
1
 11
116.6910640704
 21
191.8852081978
100
AcDbText
  0
LINE
  5
26F
100
AcDbEntity
  8
0
100
AcDbLine
 62
2
  6
CONTINUOUS
 10
65.2684450228
 20
211.4502081978
 11
65.2684450228
 21
189.7602081978
  0
LINE
  5
270
100
AcDbEntity
  8
0
100
AcDbLine
 62
2
  6
CONTINUOUS
 10
161.2684450228
 20
211.4502081978
 11
161.2684450228
 21
189.7602081978
  0
LINE
  5
271
100
AcDbEntity
  8
0
100
AcDbLine
 62
2
  6
CONTINUOUS
 10
65.2684450228
 20
191.2602081978
 11
113.2684450228
 21
191.2602081978
  0
LINE
  5
272
100
AcDbEntity
  8
0
100
AcDbLine
 62
2
  6
CONTINUOUS
 10
161.2684450228
 20
191.2602081978
 11
113.2684450228
 21
191.2602081978
  0
INSERT
  5
273
100
AcDbEntity
  8
0
100
AcDbBlockReference
 62
2
  6
CONTINUOUS
  2
_FILLED
 10
65.2684450228
 20
191.2602081978
 41
3.5
 42
3.5
 43
3.5
 50
180.0
  0
INSERT
  5
274
100
AcDbEntity
  8
0
100
AcDbBlockReference
 62
2
  6
CONTINUOUS
  2
_FILLED
 10
161.2684450228
 20
191.2602081978
 41
3.5
 42
3.5
 43
3.5
  0
ENDBLK
  5
275
100
AcDbEntity
  8
0
  6
BYBLOCK
 62
0
100
AcDbBlockEnd
  0
BLOCK
  5
276
100
AcDbEntity
  8
0
100
AcDbBlockBegin
 62
2
  6
CONTINUOUS
  2
*D7
 70
65
 10
0.0
 20
0.0
  3
*D7
  1

  0
TEXT
  5
277
100
AcDbEntity
  8
0
100
AcDbText
 62
5
  6
CONTINUOUS
 10
53.8541814373
 20
219.8247937573
  7
TEXTSTYLE_3
 40
1.5
  1
 0
 50
-15.6982835337
 41
0.7857142857
 72
2
 11
56.1234025185
 21
219.1870178299
100
AcDbText
  0
TEXT
  5
278
100
AcDbEntity
  8
0
100
AcDbText
 62
5
  6
CONTINUOUS
 10
44.9128966276
 20
220.1304526663
  7
TEXTSTYLE_2
 40
2.5
  1
n
 50
-15.6982835337
 41
1.0
 72
2
 11
48.1218961364
 21
219.2285473144
100
AcDbText
  0
TEXT
  5
279
100
AcDbEntity
  8
0
100
AcDbText
 62
5
  6
CONTINUOUS
 10
48.2910033898
 20
219.8302347223
  7
STANDARD
 40
2.5
  1
4.2
 50
-15.6982835337
 41
0.7142857143
 72
2
 11
53.448324029
 21
218.3807439783
100
AcDbText
  0
TEXT
  5
27A
100
AcDbEntity
  8
0
100
AcDbText
 62
5
  6
CONTINUOUS
 10
53.3130382262
 20
217.899394052
  7
TEXTSTYLE_3
 40
1.5
  1
-0.2
 50
-15.6982835337
 41
0.7142857143
 72
2
 11
57.4388947375
 21
216.7398014568
100
AcDbText
  0
LINE
  5
27B
100
AcDbEntity
  8
0
100
AcDbLine
 62
2
  6
CONTINUOUS
 10
63.2467753316
 20
214.3284085696
 11
65.2684450228
 21
213.7602081978
  0
LINE
  5
27C
100
AcDbEntity
  8
0
100
AcDbLine
 62
2
  6
CONTINUOUS
 10
65.2684450228
 20
213.7602081978
 11
44.7437893741
 21
219.5287652584
  0
LINE
  5
27D
100
AcDbEntity
  8
0
100
AcDbLine
 62
2
  6
CONTINUOUS
 10
67.290114714
 20
213.1920078259
 11
65.2684450228
 21
213.7602081978
  0
LINE
  5
27E
100
AcDbEntity
  8
0
100
AcDbLine
 62
2
  6
CONTINUOUS
 10
65.2684450228
 20
213.7602081978
 11
73.0663138291
 21
211.5685781929
  0
INSERT
  5
27F
100
AcDbEntity
  8
0
100
AcDbBlockReference
 62
2
  6
CONTINUOUS
  2
_FILLED
 10
63.2467753322
 20
214.3284085694
 41
3.5
 42
3.5
 43
3.5
 50
344.3017999548
  0
INSERT
  5
280
100
AcDbEntity
  8
0
100
AcDbBlockReference
 62
2
  6
CONTINUOUS
  2
_FILLED
 10
67.2901147133
 20
213.1920078261
 41
3.5
 42
3.5
 43
3.5
 50
164.3011740691
  0
ENDBLK
  5
281
100
AcDbEntity
  8
0
  6
BYBLOCK
 62
0
100
AcDbBlockEnd
  0
BLOCK
  5
282
100
AcDbEntity
  8
0
100
AcDbBlockBegin
 62
2
  6
CONTINUOUS
  2
*D8
 70
65
 10
0.0
 20
0.0
  3
*D8
  1

  0
MTEXT
  5
283
100
AcDbEntity
  8
0
100
AcDbMText
 62
5
  6
CONTINUOUS
  7
STANDARD
 71
2
 72
1
 10
172.0683403236
 20
213.7602081978
 30
0.0
 11
0.0
 21
1.0
 31
0.0
 44
0.9
  1
4
 40
2.5
 41
1.9642857143
  0
LINE
  5
284
100
AcDbEntity
  8
0
100
AcDbLine
 62
2
  6
CONTINUOUS
 10
161.7684450228
 20
211.7602081978
 11
176.6933403236
 21
211.7602081978
  0
LINE
  5
285
100
AcDbEntity
  8
0
100
AcDbLine
 62
2
  6
CONTINUOUS
 10
161.7684450228
 20
215.7602081978
 11
176.6933403236
 21
215.7602081978
  0
LINE
  5
286
100
AcDbEntity
  8
0
100
AcDbLine
 62
2
  6
CONTINUOUS
 10
175.1933403236
 20
211.7602081978
 11
175.1933403236
 21
205.7602081978
  0
LINE
  5
287
100
AcDbEntity
  8
0
100
AcDbLine
 62
2
  6
CONTINUOUS
 10
175.1933403236
 20
205.7602081978
 11
175.1933403236
 21
213.7602081978
  0
LINE
  5
288
100
AcDbEntity
  8
0
100
AcDbLine
 62
2
  6
CONTINUOUS
 10
175.1933403236
 20
215.7602081978
 11
175.1933403236
 21
221.7602081978
  0
LINE
  5
289
100
AcDbEntity
  8
0
100
AcDbLine
 62
2
  6
CONTINUOUS
 10
175.1933403236
 20
221.7602081978
 11
175.1933403236
 21
213.7602081978
  0
INSERT
  5
28A
100
AcDbEntity
  8
0
100
AcDbBlockReference
 62
2
  6
CONTINUOUS
  2
_FILLED
 10
175.1933403236
 20
211.7602081978
 41
3.5
 42
3.5
 43
3.5
 50
90.0
  0
INSERT
  5
28B
100
AcDbEntity
  8
0
100
AcDbBlockReference
 62
2
  6
CONTINUOUS
  2
_FILLED
 10
175.1933403236
 20
215.7602081978
 41
3.5
 42
3.5
 43
3.5
 50
270.0
  0
ENDBLK
  5
28C
100
AcDbEntity
  8
0
  6
BYBLOCK
 62
0
100
AcDbBlockEnd
  0
BLOCK
  5
28D
100
AcDbEntity
  8
0
100
AcDbBlockBegin
 62
2
  6
CONTINUOUS
  2
*D9
 70
65
 10
0.0
 20
0.0
  3
*D9
  1

  0
MTEXT
  5
28E
100
AcDbEntity
  8
0
100
AcDbMText
 62
5
  6
CONTINUOUS
  7
STANDARD
 71
2
 72
1
 10
161.2684450228
 20
231.3852081978
 30
0.0
 11
1.0
 21
0.0
 31
0.0
 44
0.9
  1
5
 40
2.5
 41
1.7857142857
  0
LINE
  5
28F
100
AcDbEntity
  8
0
100
AcDbLine
 62
2
  6
CONTINUOUS
 10
158.7684450228
 20
213.7602081978
 11
158.7684450228
 21
229.7602081978
  0
LINE
  5
290
100
AcDbEntity
  8
0
100
AcDbLine
 62
2
  6
CONTINUOUS
 10
163.7684450228
 20
213.7602081978
 11
163.7684450228
 21
229.7602081978
  0
LINE
  5
291
100
AcDbEntity
  8
0
100
AcDbLine
 62
2
  6
CONTINUOUS
 10
158.7684450228
 20
228.2602081978
 11
152.7684450228
 21
228.2602081978
  0
LINE
  5
292
100
AcDbEntity
  8
0
100
AcDbLine
 62
2
  6
CONTINUOUS
 10
152.7684450228
 20
228.2602081978
 11
161.2684450228
 21
228.2602081978
  0
LINE
  5
293
100
AcDbEntity
  8
0
100
AcDbLine
 62
2
  6
CONTINUOUS
 10
163.7684450228
 20
228.2602081978
 11
169.7684450228
 21
228.2602081978
  0
LINE
  5
294
100
AcDbEntity
  8
0
100
AcDbLine
 62
2
  6
CONTINUOUS
 10
169.7684450228
 20
228.2602081978
 11
161.2684450228
 21
228.2602081978
  0
INSERT
  5
295
100
AcDbEntity
  8
0
100
AcDbBlockReference
 62
2
  6
CONTINUOUS
  2
_FILLED
 10
158.7684450228
 20
228.2602081978
 41
3.5
 42
3.5
 43
3.5
  0
INSERT
  5
296
100
AcDbEntity
  8
0
100
AcDbBlockReference
 62
2
  6
CONTINUOUS
  2
_FILLED
 10
163.7684450228
 20
228.2602081978
 41
3.5
 42
3.5
 43
3.5
 50
180.0
  0
ENDBLK
  5
297
100
AcDbEntity
  8
0
  6
BYBLOCK
 62
0
100
AcDbBlockEnd
  0
BLOCK
  5
298
100
AcDbEntity
  8
0
100
AcDbBlockBegin
  2
*T1
 70
1
 10
0.0
 20
0.0
  3
*T1
  1

  0
LINE
  5
299
100
AcDbEntity
  8
0
100
AcDbLine
 62
2
  6
CONTINUOUS
 10
185.0
 20
0.0
 11
0.0
 21
0.0
  0
LINE
  5
29A
100
AcDbEntity
  8
0
100
AcDbLine
 62
2
  6
CONTINUOUS
 10
185.0
 20
0.0
 11
185.0
 21
52.5
  0
LINE
  5
29B
100
AcDbEntity
  8
0
100
AcDbLine
 62
2
  6
CONTINUOUS
 10
185.0
 20
4.0
 11
0.0
 21
4.0
  0
LINE
  5
29C
100
AcDbEntity
  8
0
100
AcDbLine
 62
2
  6
CONTINUOUS
 10
185.0
 20
8.0
 11
172.0
 21
8.0
  0
LINE
  5
29D
100
AcDbEntity
  8
0
100
AcDbLine
 62
2
  6
CONTINUOUS
 10
55.0
 20
8.0
 11
0.0
 21
8.0
  0
LINE
  5
29E
100
AcDbEntity
  8
0
100
AcDbLine
 62
2
  6
CONTINUOUS
 10
185.0
 20
16.0
 11
55.0
 21
16.0
  0
LINE
  5
29F
100
AcDbEntity
  8
0
100
AcDbLine
 62
2
  6
CONTINUOUS
 10
98.0
 20
20.0
 11
55.0
 21
20.0
  0
LINE
  5
2A0
100
AcDbEntity
  8
0
100
AcDbLine
 62
2
  6
CONTINUOUS
 10
98.0
 20
24.0
 11
55.0
 21
24.0
  0
LINE
  5
2A1
100
AcDbEntity
  8
0
100
AcDbLine
 62
2
  6
CONTINUOUS
 10
98.0
 20
28.0
 11
55.0
 21
28.0
  0
LINE
  5
2A2
100
AcDbEntity
  8
0
100
AcDbLine
 62
2
  6
CONTINUOUS
 10
98.0
 20
32.0
 11
55.0
 21
32.0
  0
LINE
  5
2A3
100
AcDbEntity
  8
0
100
AcDbLine
 62
2
  6
CONTINUOUS
 10
185.0
 20
36.0
 11
0.0
 21
36.0
  0
LINE
  5
2A4
100
AcDbEntity
  8
0
100
AcDbLine
 62
2
  6
CONTINUOUS
 10
185.0
 20
46.0
 11
98.0
 21
46.0
  0
LINE
  5
2A5
100
AcDbEntity
  8
0
100
AcDbLine
 62
2
  6
CONTINUOUS
 10
185.0
 20
52.5
 11
0.0
 21
52.5
  0
LINE
  5
2A6
100
AcDbEntity
  8
0
100
AcDbLine
 62
2
  6
CONTINUOUS
 10
172.0
 20
4.0
 11
172.0
 21
16.0
  0
LINE
  5
2A7
100
AcDbEntity
  8
0
100
AcDbLine
 62
2
  6
CONTINUOUS
 10
142.0
 20
46.0
 11
142.0
 21
52.5
  0
LINE
  5
2A8
100
AcDbEntity
  8
0
100
AcDbLine
 62
2
  6
CONTINUOUS
 10
98.0
 20
0.0
 11
98.0
 21
52.5
  0
LINE
  5
2A9
100
AcDbEntity
  8
0
100
AcDbLine
 62
2
  6
CONTINUOUS
 10
80.0
 20
20.0
 11
80.0
 21
52.5
  0
LINE
  5
2AA
100
AcDbEntity
  8
0
100
AcDbLine
 62
2
  6
CONTINUOUS
 10
65.0
 20
16.0
 11
65.0
 21
36.0
  0
LINE
  5
2AB
100
AcDbEntity
  8
0
100
AcDbLine
 62
2
  6
CONTINUOUS
 10
55.0
 20
0.0
 11
55.0
 21
52.5
  0
LINE
  5
2AC
100
AcDbEntity
  8
0
100
AcDbLine
 62
2
  6
CONTINUOUS
 10
47.0
 20
0.0
 11
47.0
 21
8.0
  0
LINE
  5
2AD
100
AcDbEntity
  8
0
100
AcDbLine
 62
2
  6
CONTINUOUS
 10
34.0
 20
0.0
 11
34.0
 21
8.0
  0
LINE
  5
2AE
100
AcDbEntity
  8
0
100
AcDbLine
 62
2
  6
CONTINUOUS
 10
8.0
 20
0.0
 11
8.0
 21
8.0
  0
LINE
  5
2AF
100
AcDbEntity
  8
0
100
AcDbLine
 62
2
  6
CONTINUOUS
 10
0.0
 20
0.0
 11
0.0
 21
52.5
  0
MTEXT
  5
2B0
100
AcDbEntity
  8
0
100
AcDbMText
 62
5
  6
CONTINUOUS
  7
STANDARD
 71
1
 72
1
 10
119.225
 20
3.0
 30
0.0
 11
1.0
 21
0.0
 31
0.0
 44
0.9
  1
.
 40
2.0
 41
1.1428571429
  0
MTEXT
  5
2B1
100
AcDbEntity
  8
0
100
AcDbMText
 62
5
  6
CONTINUOUS
  7
STANDARD
 71
1
 72
1
 10
99.225
 20
3.0
 30
0.0
 11
1.0
 21
0.0
 31
0.0
 44
0.9
  1
(Ersatz fuer:)
 40
2.0
 41
17.4285714286
  0
MTEXT
  5
2B2
100
AcDbEntity
  8
0
100
AcDbMText
 62
5
  6
CONTINUOUS
  7
STANDARD
 71
1
 72
1
 10
56.225
 20
2.9
 30
0.0
 11
1.0
 21
0.0
 31
0.0
 44
0.9
  1
(Urspr.)
 40
1.8
 41
8.8714285714
  0
MTEXT
  5
2B3
100
AcDbEntity
  8
0
100
AcDbMText
 62
5
  6
CONTINUOUS
  7
STANDARD
 71
1
 72
1
 10
48.225
 20
3.0
 30
0.0
 11
1.0
 21
0.0
 31
0.0
 44
0.9
  1
Name
 40
2.0
 41
6.2857142857
  0
MTEXT
  5
2B4
100
AcDbEntity
  8
0
100
AcDbMText
 62
5
  6
CONTINUOUS
  7
STANDARD
 71
1
 72
1
 10
35.225
 20
3.0
 30
0.0
 11
1.0
 21
0.0
 31
0.0
 44
0.9
  1
Datum
 40
2.0
 41
7.6666666667
  0
MTEXT
  5
2B5
100
AcDbEntity
  8
0
100
AcDbMText
 62
5
  6
CONTINUOUS
  7
STANDARD
 71
1
 72
1
 10
9.225
 20
3.0
 30
0.0
 11
1.0
 21
0.0
 31
0.0
 44
0.9
  1
Aenderung
 40
2.0
 41
13.0
  0
MTEXT
  5
2B6
100
AcDbEntity
  8
0
100
AcDbMText
 62
5
  6
CONTINUOUS
  7
STANDARD
 71
1
 72
1
 10
1.225
 20
3.0
 30
0.0
 11
1.0
 21
0.0
 31
0.0
 44
0.9
  1
Zust.
 40
2.0
 41
6.7142857143
  0
MTEXT
  5
2B7
100
AcDbEntity
  8
0
100
AcDbMText
 62
5
  6
CONTINUOUS
  7
STANDARD
 71
1
 72
1
 10
180.225
 20
7.0
 30
0.0
 11
1.0
 21
0.0
 31
0.0
 44
0.9
  1
Bl.
 40
2.0
 41
3.7142857143
  0
MTEXT
  5
2B8
100
AcDbEntity
  8
0
100
AcDbMText
 62
7
  6
CONTINUOUS
  7
STANDARD
 71
1
 72
1
 10
99.225
 20
10.25
 30
0.0
 11
1.0
 21
0.0
 31
0.0
 44
0.9
  1
M-197-107-01
 40
3.5
 41
30.25
  0
MTEXT
  5
2B9
100
AcDbEntity
  8
0
100
AcDbMText
 62
3
  6
CONTINUOUS
  7
TEXTSTYLE_4
 71
2
 72
1
 10
76.5
 20
13.0
 30
0.0
 11
1.0
 21
0.0
 31
0.0
 44
0.9
  1
spelsberg
 40
6.0
 41
31.9
  0
MTEXT
  5
2BA
100
AcDbEntity
  8
0
100
AcDbMText
 62
5
  6
CONTINUOUS
  7
STANDARD
 71
1
 72
1
 10
48.225
 20
6.8
 30
0.0
 11
1.0
 21
0.0
 31
0.0
 44
0.9
  1
.
 40
1.6
 41
0.9142857143
  0
MTEXT
  5
2BB
100
AcDbEntity
  8
0
100
AcDbMText
 62
5
  6
CONTINUOUS
  7
STANDARD
 71
1
 72
1
 10
35.225
 20
6.8
 30
0.0
 11
1.0
 21
0.0
 31
0.0
 44
0.9
  1
.
 40
1.6
 41
0.9142857143
  0
MTEXT
  5
2BC
100
AcDbEntity
  8
0
100
AcDbMText
 62
5
  6
CONTINUOUS
  7
STANDARD
 71
1
 72
1
 10
9.225
 20
6.8
 30
0.0
 11
1.0
 21
0.0
 31
0.0
 44
0.9
  1
.
 40
1.6
 41
0.9142857143
  0
MTEXT
  5
2BD
100
AcDbEntity
  8
0
100
AcDbMText
 62
5
  6
CONTINUOUS
  7
STANDARD
 71
1
 72
1
 10
173.225
 20
11.0
 30
0.0
 11
1.0
 21
0.0
 31
0.0
 44
0.9
  1
1
 40
2.0
 41
1.1428571429
  0
MTEXT
  5
2BE
100
AcDbEntity
  8
0
100
AcDbMText
 62
5
  6
CONTINUOUS
  7
STANDARD
 71
1
 72
1
 10
-3.075
 20
-31.4523809524
 30
0.0
 11
0.0
 21
1.0
 31
0.0
 44
3.18
  1
                     Schutzvermerk nach DIN 34 beachten!
 40
2.0
 41
82.9047619048
  0
MTEXT
  5
2BF
100
AcDbEntity
  8
0
100
AcDbMText
 62
5
  6
CONTINUOUS
  7
STANDARD
 71
1
 72
1
 10
173.225
 20
15.0
 30
0.0
 11
1.0
 21
0.0
 31
0.0
 44
0.9
  1
Blatt
 40
2.0
 41
6.2857142857
  0
MTEXT
  5
2C0
100
AcDbEntity
  8
0
100
AcDbMText
 62
5
  6
CONTINUOUS
  7
STANDARD
 71
1
 72
1
 10
99.225
 20
15.0
 30
0.0
 11
1.0
 21
0.0
 31
0.0
 44
0.9
  1
(Zeichnungsnummer)
 40
2.0
 41
24.9047619048
  0
MTEXT
  5
2C1
100
AcDbEntity
  8
0
100
AcDbMText
 62
5
  6
CONTINUOUS
  7
STANDARD
 71
1
 72
1
 10
48.225
 20
31.6
 30
0.0
 11
1.0
 21
0.0
 31
0.0
 44
0.9
  1
 \P \P \P \P \P \P \P \P \P \P \P \P \P \P                                                                          TRAGSCHIENE_TS15_104MM-KAT
 40
1.6
 41
125.219047619
  0
MTEXT
  5
2C2
100
AcDbEntity
  8
0
100
AcDbMText
 62
5
  6
CONTINUOUS
  7
STANDARD
 71
1
 72
1
 10
35.225
 20
31.6
 30
0.0
 11
1.0
 21
0.0
 31
0.0
 44
0.9
  1
 \P \P \P \P \P \P \P \P \P \P \P \P \P \P                                                                 (Dateiname Zeichnung:)
 40
1.6
 41
105.2952380952
  0
MTEXT
  5
2C3
100
AcDbEntity
  8
0
100
AcDbMText
 62
5
  6
CONTINUOUS
  7
STANDARD
 71
1
 72
1
 10
9.225
 20
31.6
 30
0.0
 11
1.0
 21
0.0
 31
0.0
 44
0.9
  1
 \P \P \P \P \P \P \P \P \P \P \P \P \P \P                                                     TRAGSCHIENE_TS15_104MM-KAT
 40
1.6
 41
98.819047619
  0
MTEXT
  5
2C4
100
AcDbEntity
  8
0
100
AcDbMText
 62
5
  6
CONTINUOUS
  7
STANDARD
 71
1
 72
1
 10
1.225
 20
31.6
 30
0.0
 11
1.0
 21
0.0
 31
0.0
 44
0.9
  1
 \P \P \P \P \P \P \P \P \P \P \P \P \P \P                                           (Dateiname Modell:)
 40
1.6
 41
74.0571428571
  0
MTEXT
  5
2C5
100
AcDbEntity
  8
0
100
AcDbMText
 62
7
  6
CONTINUOUS
  7
STANDARD
 71
1
 72
1
 10
99.225
 20
22.25
 30
0.0
 11
1.0
 21
0.0
 31
0.0
 44
0.9
  1
.
 40
3.5
 41
2.0
  0
MTEXT
  5
2C6
100
AcDbEntity
  8
0
100
AcDbMText
 62
5
  6
CONTINUOUS
  7
STANDARD
 71
1
 72
1
 10
56.225
 20
19.0
 30
0.0
 11
1.0
 21
0.0
 31
0.0
 44
0.9
  1
Status
 40
2.0
 41
8.1428571429
  0
MTEXT
  5
2C7
100
AcDbEntity
  8
0
100
AcDbMText
 62
5
  6
CONTINUOUS
  7
STANDARD
 71
1
 72
1
 10
56.225
 20
23.0
 30
0.0
 11
1.0
 21
0.0
 31
0.0
 44
0.9
  1
Vers.
 40
2.0
 41
6.9523809524
  0
MTEXT
  5
2C8
100
AcDbEntity
  8
0
100
AcDbMText
 62
7
  6
CONTINUOUS
  7
STANDARD
 71
1
 72
1
 10
99.225
 20
30.25
 30
0.0
 11
1.0
 21
0.0
 31
0.0
 44
0.9
  1
Tragschiene TS 15/104mm
 40
3.5
 41
59.25
  0
MTEXT
  5
2C9
100
AcDbEntity
  8
0
100
AcDbMText
 62
5
  6
CONTINUOUS
  7
STANDARD
 71
1
 72
1
 10
81.225
 20
27.0
 30
0.0
 11
1.0
 21
0.0
 31
0.0
 44
0.9
  1
UWi
 40
2.0
 41
5.3333333333
  0
MTEXT
  5
2CA
100
AcDbEntity
  8
0
100
AcDbMText
 62
5
  6
CONTINUOUS
  7
STANDARD
 71
1
 72
1
 10
66.225
 20
27.0
 30
0.0
 11
1.0
 21
0.0
 31
0.0
 44
0.9
  1
22.02.11
 40
2.0
 41
10.8571428571
  0
MTEXT
  5
2CB
100
AcDbEntity
  8
0
100
AcDbMText
 62
5
  6
CONTINUOUS
  7
STANDARD
 71
1
 72
1
 10
56.225
 20
27.0
 30
0.0
 11
1.0
 21
0.0
 31
0.0
 44
0.9
  1
Gepr.
 40
2.0
 41
6.8571428571
  0
MTEXT
  5
2CC
100
AcDbEntity
  8
0
100
AcDbMText
 62
5
  6
CONTINUOUS
  7
STANDARD
 71
1
 72
1
 10
56.225
 20
31.0
 30
0.0
 11
1.0
 21
0.0
 31
0.0
 44
0.9
  1
Bearb.
 40
2.0
 41
8.2857142857
  0
MTEXT
  5
2CD
100
AcDbEntity
  8
0
100
AcDbMText
 62
5
  6
CONTINUOUS
  7
STANDARD
 71
1
 72
1
 10
99.225
 20
35.0
 30
0.0
 11
1.0
 21
0.0
 31
0.0
 44
0.9
  1
(Benennung)
 40
2.0
 41
14.7142857143
  0
MTEXT
  5
2CE
100
AcDbEntity
  8
0
100
AcDbMText
 62
5
  6
CONTINUOUS
  7
STANDARD
 71
1
 72
1
 10
81.225
 20
35.0
 30
0.0
 11
1.0
 21
0.0
 31
0.0
 44
0.9
  1
Name
 40
2.0
 41
6.2857142857
  0
MTEXT
  5
2CF
100
AcDbEntity
  8
0
100
AcDbMText
 62
5
  6
CONTINUOUS
  7
STANDARD
 71
1
 72
1
 10
66.225
 20
35.0
 30
0.0
 11
1.0
 21
0.0
 31
0.0
 44
0.9
  1
Datum
 40
2.0
 41
7.6666666667
  0
MTEXT
  5
2D0
100
AcDbEntity
  8
0
100
AcDbMText
 62
3
  6
CONTINUOUS
  7
STANDARD
 71
1
 72
1
 10
128.225
 20
42.25
 30
0.0
 11
1.0
 21
0.0
 31
0.0
 44
0.9
  1
Z-121-01
 40
2.5
 41
13.75
  0
MTEXT
  5
2D1
100
AcDbEntity
  8
0
100
AcDbMText
 62
5
  6
CONTINUOUS
  7
STANDARD
 71
1
 72
1
 10
99.225
 20
44.5
 30
0.0
 11
1.0
 21
0.0
 31
0.0
 44
0.9
  1
(Werkstoff,Halbzeug)
 40
2.0
 41
27.1428571429
  0
MTEXT
  5
2D2
100
AcDbEntity
  8
0
100
AcDbMText
 62
3
  6
CONTINUOUS
  7
STANDARD
 71
1
 72
1
 10
119.225
 20
51.0
 30
0.0
 11
1.0
 21
0.0
 31
0.0
 44
0.9
  1
1:1
 40
3.5
 41
5.25
  0
MTEXT
  5
2D3
100
AcDbEntity
  8
0
100
AcDbMText
 62
5
  6
CONTINUOUS
  7
STANDARD
 71
1
 72
1
 10
143.225
 20
51.9
 30
0.0
 11
1.0
 21
0.0
 31
0.0
 44
0.9
  1
(Volumen in cm³)
 40
1.8
 41
19.9028571429
  0
MTEXT
  5
2D4
100
AcDbEntity
  8
0
100
AcDbMText
 62
5
  6
CONTINUOUS
  7
STANDARD
 71
1
 72
1
 10
99.225
 20
52.0
 30
0.0
 11
1.0
 21
0.0
 31
0.0
 44
0.9
  1
Masstab
 40
2.0
 41
10.0
  0
MTEXT
  5
2D5
100
AcDbEntity
  8
0
100
AcDbMText
 62
5
  6
CONTINUOUS
  7
STANDARD
 71
1
 72
1
 10
81.225
 20
52.0
 30
0.0
 11
1.0
 21
0.0
 31
0.0
 44
0.9
  1
(Oberflaeche)
 40
2.0
 41
16.5714285714
  0
MTEXT
  5
2D6
100
AcDbEntity
  8
0
100
AcDbMText
 62
5
  6
CONTINUOUS
  7
STANDARD
 71
1
 72
1
 10
56.225
 20
52.0
 30
0.0
 11
1.0
 21
0.0
 31
0.0
 44
0.9
  1
(Zul.Abw.)
 40
2.0
 41
13.1428571429
  0
MTEXT
  5
2D7
100
AcDbEntity
  8
0
100
AcDbMText
 62
5
  6
CONTINUOUS
  7
STANDARD
 71
1
 72
1
 10
1.225
 20
52.0
 30
0.0
 11
1.0
 21
0.0
 31
0.0
 44
0.9
  1
(Verwendungsbereich)
 40
2.0
 41
27.4285714286
  0
ENDBLK
  5
2D8
100
AcDbEntity
  8
0
100
AcDbBlockEnd
  0
BLOCK
  5
2D9
100
AcDbEntity
  8
0
100
AcDbBlockBegin
  2
*T2
 70
1
 10
0.0
 20
0.0
  3
*T2
  1

  0
LINE
  5
2DA
100
AcDbEntity
  8
0
100
AcDbLine
 62
2
  6
CONTINUOUS
 10
185.0
 20
0.0
 11
0.0
 21
0.0
  0
LINE
  5
2DB
100
AcDbEntity
  8
0
100
AcDbLine
 62
2
  6
CONTINUOUS
 10
185.0
 20
0.0
 11
185.0
 21
52.5
  0
LINE
  5
2DC
100
AcDbEntity
  8
0
100
AcDbLine
 62
2
  6
CONTINUOUS
 10
185.0
 20
4.0
 11
0.0
 21
4.0
  0
LINE
  5
2DD
100
AcDbEntity
  8
0
100
AcDbLine
 62
2
  6
CONTINUOUS
 10
185.0
 20
8.0
 11
172.0
 21
8.0
  0
LINE
  5
2DE
100
AcDbEntity
  8
0
100
AcDbLine
 62
2
  6
CONTINUOUS
 10
55.0
 20
8.0
 11
0.0
 21
8.0
  0
LINE
  5
2DF
100
AcDbEntity
  8
0
100
AcDbLine
 62
2
  6
CONTINUOUS
 10
185.0
 20
16.0
 11
55.0
 21
16.0
  0
LINE
  5
2E0
100
AcDbEntity
  8
0
100
AcDbLine
 62
2
  6
CONTINUOUS
 10
98.0
 20
20.0
 11
55.0
 21
20.0
  0
LINE
  5
2E1
100
AcDbEntity
  8
0
100
AcDbLine
 62
2
  6
CONTINUOUS
 10
98.0
 20
24.0
 11
55.0
 21
24.0
  0
LINE
  5
2E2
100
AcDbEntity
  8
0
100
AcDbLine
 62
2
  6
CONTINUOUS
 10
98.0
 20
28.0
 11
55.0
 21
28.0
  0
LINE
  5
2E3
100
AcDbEntity
  8
0
100
AcDbLine
 62
2
  6
CONTINUOUS
 10
98.0
 20
32.0
 11
55.0
 21
32.0
  0
LINE
  5
2E4
100
AcDbEntity
  8
0
100
AcDbLine
 62
2
  6
CONTINUOUS
 10
185.0
 20
36.0
 11
0.0
 21
36.0
  0
LINE
  5
2E5
100
AcDbEntity
  8
0
100
AcDbLine
 62
2
  6
CONTINUOUS
 10
185.0
 20
46.0
 11
98.0
 21
46.0
  0
LINE
  5
2E6
100
AcDbEntity
  8
0
100
AcDbLine
 62
2
  6
CONTINUOUS
 10
185.0
 20
52.5
 11
0.0
 21
52.5
  0
LINE
  5
2E7
100
AcDbEntity
  8
0
100
AcDbLine
 62
2
  6
CONTINUOUS
 10
172.0
 20
4.0
 11
172.0
 21
16.0
  0
LINE
  5
2E8
100
AcDbEntity
  8
0
100
AcDbLine
 62
2
  6
CONTINUOUS
 10
142.0
 20
46.0
 11
142.0
 21
52.5
  0
LINE
  5
2E9
100
AcDbEntity
  8
0
100
AcDbLine
 62
2
  6
CONTINUOUS
 10
98.0
 20
0.0
 11
98.0
 21
52.5
  0
LINE
  5
2EA
100
AcDbEntity
  8
0
100
AcDbLine
 62
2
  6
CONTINUOUS
 10
80.0
 20
20.0
 11
80.0
 21
52.5
  0
LINE
  5
2EB
100
AcDbEntity
  8
0
100
AcDbLine
 62
2
  6
CONTINUOUS
 10
65.0
 20
16.0
 11
65.0
 21
36.0
  0
LINE
  5
2EC
100
AcDbEntity
  8
0
100
AcDbLine
 62
2
  6
CONTINUOUS
 10
55.0
 20
0.0
 11
55.0
 21
52.5
  0
LINE
  5
2ED
100
AcDbEntity
  8
0
100
AcDbLine
 62
2
  6
CONTINUOUS
 10
47.0
 20
0.0
 11
47.0
 21
8.0
  0
LINE
  5
2EE
100
AcDbEntity
  8
0
100
AcDbLine
 62
2
  6
CONTINUOUS
 10
34.0
 20
0.0
 11
34.0
 21
8.0
  0
LINE
  5
2EF
100
AcDbEntity
  8
0
100
AcDbLine
 62
2
  6
CONTINUOUS
 10
8.0
 20
0.0
 11
8.0
 21
8.0
  0
LINE
  5
2F0
100
AcDbEntity
  8
0
100
AcDbLine
 62
2
  6
CONTINUOUS
 10
0.0
 20
0.0
 11
0.0
 21
52.5
  0
MTEXT
  5
2F1
100
AcDbEntity
  8
0
100
AcDbMText
 62
5
  6
CONTINUOUS
  7
STANDARD
 71
1
 72
1
 10
119.225
 20
3.0
 30
0.0
 11
1.0
 21
0.0
 31
0.0
 44
0.9
  1
.
 40
2.0
 41
1.1428571429
  0
MTEXT
  5
2F2
100
AcDbEntity
  8
0
100
AcDbMText
 62
5
  6
CONTINUOUS
  7
STANDARD
 71
1
 72
1
 10
99.225
 20
3.0
 30
0.0
 11
1.0
 21
0.0
 31
0.0
 44
0.9
  1
(Ersatz fuer:)
 40
2.0
 41
17.4285714286
  0
MTEXT
  5
2F3
100
AcDbEntity
  8
0
100
AcDbMText
 62
5
  6
CONTINUOUS
  7
STANDARD
 71
1
 72
1
 10
56.225
 20
2.9
 30
0.0
 11
1.0
 21
0.0
 31
0.0
 44
0.9
  1
(Urspr.)
 40
1.8
 41
8.8714285714
  0
MTEXT
  5
2F4
100
AcDbEntity
  8
0
100
AcDbMText
 62
5
  6
CONTINUOUS
  7
STANDARD
 71
1
 72
1
 10
48.225
 20
3.0
 30
0.0
 11
1.0
 21
0.0
 31
0.0
 44
0.9
  1
Name
 40
2.0
 41
6.2857142857
  0
MTEXT
  5
2F5
100
AcDbEntity
  8
0
100
AcDbMText
 62
5
  6
CONTINUOUS
  7
STANDARD
 71
1
 72
1
 10
35.225
 20
3.0
 30
0.0
 11
1.0
 21
0.0
 31
0.0
 44
0.9
  1
Datum
 40
2.0
 41
7.6666666667
  0
MTEXT
  5
2F6
100
AcDbEntity
  8
0
100
AcDbMText
 62
5
  6
CONTINUOUS
  7
STANDARD
 71
1
 72
1
 10
9.225
 20
3.0
 30
0.0
 11
1.0
 21
0.0
 31
0.0
 44
0.9
  1
Aenderung
 40
2.0
 41
13.0
  0
MTEXT
  5
2F7
100
AcDbEntity
  8
0
100
AcDbMText
 62
5
  6
CONTINUOUS
  7
STANDARD
 71
1
 72
1
 10
1.225
 20
3.0
 30
0.0
 11
1.0
 21
0.0
 31
0.0
 44
0.9
  1
Zust.
 40
2.0
 41
6.7142857143
  0
MTEXT
  5
2F8
100
AcDbEntity
  8
0
100
AcDbMText
 62
5
  6
CONTINUOUS
  7
STANDARD
 71
1
 72
1
 10
180.225
 20
7.0
 30
0.0
 11
1.0
 21
0.0
 31
0.0
 44
0.9
  1
Bl.
 40
2.0
 41
3.7142857143
  0
MTEXT
  5
2F9
100
AcDbEntity
  8
0
100
AcDbMText
 62
7
  6
CONTINUOUS
  7
STANDARD
 71
1
 72
1
 10
99.225
 20
10.25
 30
0.0
 11
1.0
 21
0.0
 31
0.0
 44
0.9
  1
M-197-107-01
 40
3.5
 41
30.25
  0
MTEXT
  5
2FA
100
AcDbEntity
  8
0
100
AcDbMText
 62
3
  6
CONTINUOUS
  7
TEXTSTYLE_4
 71
2
 72
1
 10
76.5
 20
13.0
 30
0.0
 11
1.0
 21
0.0
 31
0.0
 44
0.9
  1
spelsberg
 40
6.0
 41
31.9
  0
MTEXT
  5
2FB
100
AcDbEntity
  8
0
100
AcDbMText
 62
5
  6
CONTINUOUS
  7
STANDARD
 71
1
 72
1
 10
48.225
 20
6.8
 30
0.0
 11
1.0
 21
0.0
 31
0.0
 44
0.9
  1
.
 40
1.6
 41
0.9142857143
  0
MTEXT
  5
2FC
100
AcDbEntity
  8
0
100
AcDbMText
 62
5
  6
CONTINUOUS
  7
STANDARD
 71
1
 72
1
 10
35.225
 20
6.8
 30
0.0
 11
1.0
 21
0.0
 31
0.0
 44
0.9
  1
.
 40
1.6
 41
0.9142857143
  0
MTEXT
  5
2FD
100
AcDbEntity
  8
0
100
AcDbMText
 62
5
  6
CONTINUOUS
  7
STANDARD
 71
1
 72
1
 10
9.225
 20
6.8
 30
0.0
 11
1.0
 21
0.0
 31
0.0
 44
0.9
  1
.
 40
1.6
 41
0.9142857143
  0
MTEXT
  5
2FE
100
AcDbEntity
  8
0
100
AcDbMText
 62
5
  6
CONTINUOUS
  7
STANDARD
 71
1
 72
1
 10
173.225
 20
11.0
 30
0.0
 11
1.0
 21
0.0
 31
0.0
 44
0.9
  1
1
 40
2.0
 41
1.1428571429
  0
MTEXT
  5
2FF
100
AcDbEntity
  8
0
100
AcDbMText
 62
5
  6
CONTINUOUS
  7
STANDARD
 71
1
 72
1
 10
-3.075
 20
-31.4523809524
 30
0.0
 11
0.0
 21
1.0
 31
0.0
 44
3.18
  1
                     Schutzvermerk nach DIN 34 beachten!
 40
2.0
 41
82.9047619048
  0
MTEXT
  5
300
100
AcDbEntity
  8
0
100
AcDbMText
 62
5
  6
CONTINUOUS
  7
STANDARD
 71
1
 72
1
 10
173.225
 20
15.0
 30
0.0
 11
1.0
 21
0.0
 31
0.0
 44
0.9
  1
Blatt
 40
2.0
 41
6.2857142857
  0
MTEXT
  5
301
100
AcDbEntity
  8
0
100
AcDbMText
 62
5
  6
CONTINUOUS
  7
STANDARD
 71
1
 72
1
 10
99.225
 20
15.0
 30
0.0
 11
1.0
 21
0.0
 31
0.0
 44
0.9
  1
(Zeichnungsnummer)
 40
2.0
 41
24.9047619048
  0
MTEXT
  5
302
100
AcDbEntity
  8
0
100
AcDbMText
 62
5
  6
CONTINUOUS
  7
STANDARD
 71
1
 72
1
 10
48.225
 20
31.6
 30
0.0
 11
1.0
 21
0.0
 31
0.0
 44
0.9
  1
 \P \P \P \P \P \P \P \P \P \P \P \P \P \P                                                                          TRAGSCHIENE_TS15_104MM-KAT
 40
1.6
 41
125.219047619
  0
MTEXT
  5
303
100
AcDbEntity
  8
0
100
AcDbMText
 62
5
  6
CONTINUOUS
  7
STANDARD
 71
1
 72
1
 10
35.225
 20
31.6
 30
0.0
 11
1.0
 21
0.0
 31
0.0
 44
0.9
  1
 \P \P \P \P \P \P \P \P \P \P \P \P \P \P                                                                 (Dateiname Zeichnung:)
 40
1.6
 41
105.2952380952
  0
MTEXT
  5
304
100
AcDbEntity
  8
0
100
AcDbMText
 62
5
  6
CONTINUOUS
  7
STANDARD
 71
1
 72
1
 10
9.225
 20
31.6
 30
0.0
 11
1.0
 21
0.0
 31
0.0
 44
0.9
  1
 \P \P \P \P \P \P \P \P \P \P \P \P \P \P                                                     TRAGSCHIENE_TS15_104MM-KAT
 40
1.6
 41
98.819047619
  0
MTEXT
  5
305
100
AcDbEntity
  8
0
100
AcDbMText
 62
5
  6
CONTINUOUS
  7
STANDARD
 71
1
 72
1
 10
1.225
 20
31.6
 30
0.0
 11
1.0
 21
0.0
 31
0.0
 44
0.9
  1
 \P \P \P \P \P \P \P \P \P \P \P \P \P \P                                           (Dateiname Modell:)
 40
1.6
 41
74.0571428571
  0
MTEXT
  5
306
100
AcDbEntity
  8
0
100
AcDbMText
 62
7
  6
CONTINUOUS
  7
STANDARD
 71
1
 72
1
 10
99.225
 20
22.25
 30
0.0
 11
1.0
 21
0.0
 31
0.0
 44
0.9
  1
.
 40
3.5
 41
2.0
  0
MTEXT
  5
307
100
AcDbEntity
  8
0
100
AcDbMText
 62
5
  6
CONTINUOUS
  7
STANDARD
 71
1
 72
1
 10
56.225
 20
19.0
 30
0.0
 11
1.0
 21
0.0
 31
0.0
 44
0.9
  1
Status
 40
2.0
 41
8.1428571429
  0
MTEXT
  5
308
100
AcDbEntity
  8
0
100
AcDbMText
 62
5
  6
CONTINUOUS
  7
STANDARD
 71
1
 72
1
 10
56.225
 20
23.0
 30
0.0
 11
1.0
 21
0.0
 31
0.0
 44
0.9
  1
Vers.
 40
2.0
 41
6.9523809524
  0
MTEXT
  5
309
100
AcDbEntity
  8
0
100
AcDbMText
 62
7
  6
CONTINUOUS
  7
STANDARD
 71
1
 72
1
 10
99.225
 20
30.25
 30
0.0
 11
1.0
 21
0.0
 31
0.0
 44
0.9
  1
Tragschiene TS 15/104mm
 40
3.5
 41
59.25
  0
MTEXT
  5
30A
100
AcDbEntity
  8
0
100
AcDbMText
 62
5
  6
CONTINUOUS
  7
STANDARD
 71
1
 72
1
 10
81.225
 20
27.0
 30
0.0
 11
1.0
 21
0.0
 31
0.0
 44
0.9
  1
UWi
 40
2.0
 41
5.3333333333
  0
MTEXT
  5
30B
100
AcDbEntity
  8
0
100
AcDbMText
 62
5
  6
CONTINUOUS
  7
STANDARD
 71
1
 72
1
 10
66.225
 20
27.0
 30
0.0
 11
1.0
 21
0.0
 31
0.0
 44
0.9
  1
22.02.11
 40
2.0
 41
10.8571428571
  0
MTEXT
  5
30C
100
AcDbEntity
  8
0
100
AcDbMText
 62
5
  6
CONTINUOUS
  7
STANDARD
 71
1
 72
1
 10
56.225
 20
27.0
 30
0.0
 11
1.0
 21
0.0
 31
0.0
 44
0.9
  1
Gepr.
 40
2.0
 41
6.8571428571
  0
MTEXT
  5
30D
100
AcDbEntity
  8
0
100
AcDbMText
 62
5
  6
CONTINUOUS
  7
STANDARD
 71
1
 72
1
 10
81.225
 20
31.0
 30
0.0
 11
1.0
 21
0.0
 31
0.0
 44
0.9
  1
MGu
 40
2.0
 41
4.7142857143
  0
MTEXT
  5
30E
100
AcDbEntity
  8
0
100
AcDbMText
 62
5
  6
CONTINUOUS
  7
STANDARD
 71
1
 72
1
 10
66.225
 20
31.0
 30
0.0
 11
1.0
 21
0.0
 31
0.0
 44
0.9
  1
22.02.11
 40
2.0
 41
10.8571428571
  0
MTEXT
  5
30F
100
AcDbEntity
  8
0
100
AcDbMText
 62
5
  6
CONTINUOUS
  7
STANDARD
 71
1
 72
1
 10
56.225
 20
31.0
 30
0.0
 11
1.0
 21
0.0
 31
0.0
 44
0.9
  1
Bearb.
 40
2.0
 41
8.2857142857
  0
MTEXT
  5
310
100
AcDbEntity
  8
0
100
AcDbMText
 62
5
  6
CONTINUOUS
  7
STANDARD
 71
1
 72
1
 10
99.225
 20
35.0
 30
0.0
 11
1.0
 21
0.0
 31
0.0
 44
0.9
  1
(Benennung)
 40
2.0
 41
14.7142857143
  0
MTEXT
  5
311
100
AcDbEntity
  8
0
100
AcDbMText
 62
5
  6
CONTINUOUS
  7
STANDARD
 71
1
 72
1
 10
81.225
 20
35.0
 30
0.0
 11
1.0
 21
0.0
 31
0.0
 44
0.9
  1
Name
 40
2.0
 41
6.2857142857
  0
MTEXT
  5
312
100
AcDbEntity
  8
0
100
AcDbMText
 62
5
  6
CONTINUOUS
  7
STANDARD
 71
1
 72
1
 10
66.225
 20
35.0
 30
0.0
 11
1.0
 21
0.0
 31
0.0
 44
0.9
  1
Datum
 40
2.0
 41
7.6666666667
  0
MTEXT
  5
313
100
AcDbEntity
  8
0
100
AcDbMText
 62
5
  6
CONTINUOUS
  7
STANDARD
 71
1
 72
1
 10
1.225
 20
56.75
 30
0.0
 11
1.0
 21
0.0
 31
0.0
 44
2.46
  1
NE 029/10  \P \P 
 40
2.5
 41
20.8333333333
  0
MTEXT
  5
314
100
AcDbEntity
  8
0
100
AcDbMText
 62
3
  6
CONTINUOUS
  7
STANDARD
 71
1
 72
1
 10
128.225
 20
42.25
 30
0.0
 11
1.0
 21
0.0
 31
0.0
 44
0.9
  1
Z-121-01
 40
2.5
 41
13.75
  0
MTEXT
  5
315
100
AcDbEntity
  8
0
100
AcDbMText
 62
5
  6
CONTINUOUS
  7
STANDARD
 71
1
 72
1
 10
99.225
 20
44.5
 30
0.0
 11
1.0
 21
0.0
 31
0.0
 44
0.9
  1
(Werkstoff,Halbzeug)
 40
2.0
 41
27.1428571429
  0
MTEXT
  5
316
100
AcDbEntity
  8
0
100
AcDbMText
 62
3
  6
CONTINUOUS
  7
STANDARD
 71
1
 72
1
 10
119.225
 20
51.0
 30
0.0
 11
1.0
 21
0.0
 31
0.0
 44
0.9
  1
1:1
 40
3.5
 41
5.25
  0
MTEXT
  5
317
100
AcDbEntity
  8
0
100
AcDbMText
 62
5
  6
CONTINUOUS
  7
STANDARD
 71
1
 72
1
 10
143.225
 20
51.9
 30
0.0
 11
1.0
 21
0.0
 31
0.0
 44
0.9
  1
(Volumen in cm³)
 40
1.8
 41
19.9028571429
  0
MTEXT
  5
318
100
AcDbEntity
  8
0
100
AcDbMText
 62
5
  6
CONTINUOUS
  7
STANDARD
 71
1
 72
1
 10
99.225
 20
52.0
 30
0.0
 11
1.0
 21
0.0
 31
0.0
 44
0.9
  1
Masstab
 40
2.0
 41
10.0
  0
MTEXT
  5
319
100
AcDbEntity
  8
0
100
AcDbMText
 62
5
  6
CONTINUOUS
  7
STANDARD
 71
1
 72
1
 10
81.225
 20
52.0
 30
0.0
 11
1.0
 21
0.0
 31
0.0
 44
0.9
  1
(Oberflaeche)
 40
2.0
 41
16.5714285714
  0
MTEXT
  5
31A
100
AcDbEntity
  8
0
100
AcDbMText
 62
5
  6
CONTINUOUS
  7
STANDARD
 71
1
 72
1
 10
56.225
 20
52.0
 30
0.0
 11
1.0
 21
0.0
 31
0.0
 44
0.9
  1
(Zul.Abw.)
 40
2.0
 41
13.1428571429
  0
MTEXT
  5
31B
100
AcDbEntity
  8
0
100
AcDbMText
 62
5
  6
CONTINUOUS
  7
STANDARD
 71
1
 72
1
 10
1.225
 20
52.0
 30
0.0
 11
1.0
 21
0.0
 31
0.0
 44
0.9
  1
(Verwendungsbereich)
 40
2.0
 41
27.4285714286
  0
ENDBLK
  5
31C
100
AcDbEntity
  8
0
100
AcDbBlockEnd
  0
ENDSEC
  0
SECTION
  2
ENTITIES
  0
DIMENSION
  5
31D
100
AcDbEntity
  8
ZEICHNUNGSBEMASSUNGEN
100
AcDbDimension
 62
2
  6
CONTINUOUS
  2
*D0
 10
161.2684450228
 20
199.2602081978
 11
173.1824316768
 21
201.1352081978
 70
160
 71
1
 42
4.0
  1
(<>)
  3
DIMSTYLE_1
100
AcDbAlignedDimension
 13
165.2684450228
 23
209.7102081978
 14
161.2684450228
 24
209.3602081978
 50
180.0
100
AcDbRotatedDimension
  0
DIMENSION
  5
31E
100
AcDbEntity
  8
0
100
AcDbDimension
 62
2
  6
CONTINUOUS
  2
*D1
 10
129.9934938191
 20
131.8484059857
 11
112.8506366763
 21
134.9734059857
 70
160
 71
2
 42
15.0
  3
DIMSTYLE_2
100
AcDbAlignedDimension
 13
99.9934938191
 23
147.8484059857
 14
129.9934938191
 24
147.8484059857
100
AcDbRotatedDimension
  0
DIMENSION
  5
31F
100
AcDbEntity
  8
0
100
AcDbDimension
 62
2
  6
CONTINUOUS
  2
*D2
 10
92.9934938191
 20
158.8484059857
 11
91.2376160745
 21
151.273056588
 70
160
 71
2
 42
5.5
  3
DIMSTYLE_3
100
AcDbAlignedDimension
 13
99.9934938191
 23
147.8484059857
 14
106.8934938191
 24
158.8484059857
 50
90.0
100
AcDbRotatedDimension
  0
DIMENSION
  5
320
100
AcDbEntity
  8
0
100
AcDbDimension
 62
2
  6
CONTINUOUS
  2
*D3
 10
61.2684450228
 20
236.2602081978
 11
110.3269462297
 21
238.1352081978
 70
160
 71
2
 42
104.0
  3
DIMSTYLE_4
100
AcDbAlignedDimension
 13
165.2684450228
 23
219.5102081978
 14
61.2684450228
 24
219.5102081978
 50
180.0
100
AcDbRotatedDimension
  0
DIMENSION
  5
321
100
AcDbEntity
  8
0
100
AcDbDimension
 62
2
  6
CONTINUOUS
  2
*D4
 10
106.4934938191
 20
139.8484059857
 11
112.3595652477
 21
141.7234059857
 70
160
 71
2
 42
8.5
  3
DIMSTYLE_2
100
AcDbAlignedDimension
 13
123.4934938191
 23
150.8484059857
 14
106.4934938191
 24
150.8484059857
 50
180.0
100
AcDbRotatedDimension
  0
DIMENSION
  5
322
100
AcDbEntity
  8
0
100
AcDbDimension
 62
2
  6
CONTINUOUS
  2
*D5
 10
144.9934938191
 20
149.8484059857
 11
144.5187238695
 21
136.0676271163
 70
160
 71
3
 42
1.0
  3
DIMSTYLE_5
100
AcDbAlignedDimension
 13
130.1813758159
 23
147.8484059857
 14
126.753719363
 24
149.8484059857
 50
90.0
100
AcDbRotatedDimension
  0
DIMENSION
  5
323
100
AcDbEntity
  8
0
100
AcDbDimension
 62
2
  6
CONTINUOUS
  2
*D6
 10
161.2684450228
 20
191.2602081978
 11
110.9916593085
 21
193.1352081978
 70
160
 71
2
 42
96.0
  3
DIMSTYLE_6
100
AcDbAlignedDimension
 13
65.2684450228
 23
211.4502081978
 14
161.2684450228
 24
211.4502081978
100
AcDbRotatedDimension
  0
DIMENSION
  5
324
100
AcDbEntity
  8
0
100
AcDbDimension
 62
2
  6
CONTINUOUS
  2
*D7
 10
63.2467753322
 20
214.3284085694
 11
55.1881697267
 21
219.6753764794
 70
163
 71
3
 42
4.2
  1
<>
  3
DIMSTYLE_7
100
AcDbDiametricDimension
 15
67.2901147133
 25
213.1920078261
  0
DIMENSION
  5
325
100
AcDbEntity
  8
0
100
AcDbDimension
 62
2
  6
CONTINUOUS
  2
*D8
 10
175.1933403236
 20
215.7602081978
 11
173.7584126251
 21
212.8821757603
 70
160
 71
2
 42
4.0
  3
DIMSTYLE_8
100
AcDbAlignedDimension
 13
161.7684450228
 23
211.7602081978
 14
161.7684450228
 24
215.7602081978
 50
90.0
100
AcDbRotatedDimension
  0
DIMENSION
  5
326
100
AcDbEntity
  8
0
100
AcDbDimension
 62
2
  6
CONTINUOUS
  2
*D9
 10
163.7684450228
 20
228.2602081978
 11
160.3755878799
 21
230.1352081978
 70
160
 71
2
 42
5.0
  3
DIMSTYLE_8
100
AcDbAlignedDimension
 13
158.7684450228
 23
213.7602081978
 14
163.7684450228
 24
213.7602081978
100
AcDbRotatedDimension
  0
ACAD_TABLE
  5
327
100
AcDbEntity
  8
0
 62
2
  6
CONTINUOUS
100
AcDbBlockReference
  2
*T1
 10
19.9999360663
 20
5.0000047596
 30
0.0
100
AcDbTable
342
       382
343
215
 11
1.0
 21
0.0
 31
0.0
 90
6
 91
13
 92
17
 93
20
 94
0
 95
0
 96
0
 70
1
 41
0.0
141
4.0
141
4.0
141
4.0
141
4.0
141
4.0
141
4.0
141
4.0
141
4.0
141
4.0
141
5.0
141
5.0
141
3.5
141
3.0
142
8.0
142
26.0
142
13.0
142
8.0
142
10.0
142
15.0
142
18.0
142
11.0
142
9.0
142
9.0
142
6.0
142
9.0
142
11.0
142
10.0
142
9.0
142
7.0
142
6.0
171
1
172
0
173
0
174
0
175
1
176
1
 91
41
178
0
145
0.0
301
CELL_VALUE
 90
4
  1
Zust.
304
ACVALUE_END
170
4
140
2.0
 64
5
171
1
172
0
173
0
174
0
175
1
176
1
 91
41
178
0
145
0.0
301
CELL_VALUE
 90
4
  1
Aenderung
304
ACVALUE_END
170
4
140
2.0
 64
5
171
1
172
0
173
0
174
0
175
1
176
1
 91
41
178
0
145
0.0
301
CELL_VALUE
 90
4
  1
Datum
304
ACVALUE_END
170
4
140
2.0
 64
5
171
1
172
0
173
0
174
0
175
1
176
1
 91
41
178
0
145
0.0
301
CELL_VALUE
 90
4
  1
Name
304
ACVALUE_END
170
4
140
2.0
 64
5
171
1
172
0
173
0
174
0
175
1
176
1
 91
41
178
0
145
0.0
301
CELL_VALUE
 90
4
  1
(Urspr.)
304
ACVALUE_END
170
4
140
1.8
 64
5
171
1
172
0
173
0
174
0
175
2
176
1
 91
33
178
0
145
0.0
301
CELL_VALUE
 90
4
  1
 
304
ACVALUE_END
170
4
140
1.8
171
1
172
0
173
1
174
0
175
1
176
1
 91
1
178
0
145
0.0
170
4
171
1
172
0
173
0
174
0
175
1
176
1
 91
41
178
0
145
0.0
301
CELL_VALUE
 90
4
  1
(Ersatz fuer:)
304
ACVALUE_END
170
4
140
2.0
 64
5
171
1
172
0
173
0
174
0
175
1
176
1
 91
1
178
0
145
0.0
170
1
171
1
172
0
173
0
174
0
175
8
176
1
 91
33
178
0
145
0.0
301
CELL_VALUE
 90
4
  1
.
304
ACVALUE_END
170
4
140
2.0
171
1
172
0
173
1
174
0
175
1
176
1
 91
1
178
0
145
0.0
170
1
171
1
172
0
173
1
174
0
175
1
176
1
 91
1
178
0
145
0.0
170
1
171
1
172
0
173
1
174
0
175
1
176
1
 91
1
178
0
145
0.0
170
1
171
1
172
0
173
1
174
0
175
1
176
1
 91
1
178
0
145
0.0
170
1
171
1
172
0
173
1
174
0
175
1
176
1
 91
1
178
0
145
0.0
170
1
171
1
172
0
173
1
174
0
175
1
176
1
 91
1
178
0
145
0.0
170
1
171
1
172
0
173
1
174
0
175
1
176
1
 91
1
178
0
145
0.0
170
4
171
1
172
0
173
0
174
0
175
1
176
1
 91
1
178
0
145
0.0
170
4
171
1
172
0
173
0
174
0
175
1
176
1
 91
41
178
0
145
0.0
301
CELL_VALUE
 90
4
  1
.
304
ACVALUE_END
170
4
140
1.6
 64
5
171
1
172
0
173
0
174
0
175
1
176
1
 91
41
178
0
145
0.0
301
CELL_VALUE
 90
4
  1
.
304
ACVALUE_END
170
4
140
1.6
 64
5
171
1
172
0
173
0
174
0
175
1
176
1
 91
41
178
0
145
0.0
301
CELL_VALUE
 90
4
  1
.
304
ACVALUE_END
170
4
140
1.6
 64
5
171
1
172
0
173
0
174
0
175
3
176
3
 91
33
178
0
145
0.0
301
CELL_VALUE
 90
4
  1
spelsberg
304
ACVALUE_END
170
5
140
6.0
171
1
172
0
173
1
174
0
175
1
176
1
 91
1
178
0
145
0.0
170
1
171
1
172
0
173
1
174
0
175
1
176
1
 91
1
178
0
145
0.0
170
5
171
1
172
0
173
0
174
0
175
8
176
2
 91
33
178
0
145
0.0
301
CELL_VALUE
 90
4
  1
M-197-107-01
304
ACVALUE_END
170
1
140
3.5
171
1
172
0
173
1
174
0
175
1
176
1
 91
1
178
0
145
0.0
170
1
171
1
172
0
173
1
174
0
175
1
176
1
 91
1
178
0
145
0.0
170
1
171
1
172
0
173
1
174
0
175
1
176
1
 91
1
178
0
145
0.0
170
1
171
1
172
0
173
1
174
0
175
1
176
1
 91
1
178
0
145
0.0
170
1
171
1
172
0
173
1
174
0
175
1
176
1
 91
1
178
0
145
0.0
170
1
171
1
172
0
173
1
174
0
175
1
176
1
 91
1
178
0
145
0.0
170
1
171
1
172
0
173
1
174
0
175
1
176
1
 91
1
178
0
145
0.0
170
1
171
1
172
0
173
0
174
0
175
1
176
1
 91
1
178
0
145
0.0
170
1
171
1
172
0
173
0
174
0
175
1
176
1
 91
41
178
0
145
0.0
301
CELL_VALUE
 90
4
  1
Bl.
304
ACVALUE_END
170
4
140
2.0
 64
5
171
1
172
0
173
0
174
0
175
1
176
1
 91
41
178
0
145
0.0
301
CELL_VALUE
 90
4
  1
                     Schutzvermerk nach DIN 34 beachten!
304
ACVALUE_END
170
4
140
2.0
 64
5
171
1
172
0
173
0
174
0
175
1
176
1
 91
1
178
0
145
0.0
170
1
171
1
172
0
173
0
174
0
175
1
176
1
 91
1
178
0
145
0.0
170
1
171
1
172
0
173
0
174
0
175
1
176
1
 91
1
178
0
145
0.0
170
1
171
1
172
0
173
1
174
0
175
1
176
1
 91
1
178
0
145
0.0
170
1
171
1
172
0
173
1
174
0
175
1
176
1
 91
1
178
0
145
0.0
170
1
171
1
172
0
173
1
174
0
175
1
176
1
 91
1
178
0
145
0.0
170
1
171
1
172
0
173
1
174
0
175
1
176
1
 91
1
178
0
145
0.0
170
1
171
1
172
0
173
1
174
0
175
1
176
1
 91
1
178
0
145
0.0
170
1
171
1
172
0
173
1
174
0
175
1
176
1
 91
1
178
0
145
0.0
170
1
171
1
172
0
173
1
174
0
175
1
176
1
 91
1
178
0
145
0.0
170
1
171
1
172
0
173
1
174
0
175
1
176
1
 91
1
178
0
145
0.0
170
1
171
1
172
0
173
1
174
0
175
1
176
1
 91
1
178
0
145
0.0
170
1
171
1
172
0
173
1
174
0
175
1
176
1
 91
1
178
0
145
0.0
170
1
171
1
172
0
173
1
174
0
175
1
176
1
 91
1
178
0
145
0.0
170
1
171
1
172
0
173
0
174
0
175
1
176
1
 91
41
178
0
145
0.0
301
CELL_VALUE
 90
4
  1
1
304
ACVALUE_END
170
4
140
2.0
 64
5
171
1
172
0
173
0
174
0
175
1
176
1
 91
1
178
0
145
0.0
170
1
171
1
172
0
173
0
174
0
175
1
176
1
 91
41
178
0
145
0.0
301
CELL_VALUE
 90
4
  1
 \P \P \P \P \P \P \P \P \P \P \P \P \P \P                                           (Dateiname Modell:)
304
ACVALUE_END
170
4
140
1.6
 64
5
171
1
172
0
173
0
174
0
175
1
176
1
 91
41
178
0
145
0.0
301
CELL_VALUE
 90
4
  1
 \P \P \P \P \P \P \P \P \P \P \P \P \P \P                                                     TRAGSCHIENE_TS15_104MM-KAT
304
ACVALUE_END
170
4
140
1.6
 64
5
171
1
172
0
173
0
174
0
175
1
176
1
 91
41
178
0
145
0.0
301
CELL_VALUE
 90
4
  1
 \P \P \P \P \P \P \P \P \P \P \P \P \P \P                                                                 (Dateiname Zeichnung:)
304
ACVALUE_END
170
4
140
1.6
 64
5
171
1
172
0
173
0
174
0
175
1
176
1
 91
41
178
0
145
0.0
301
CELL_VALUE
 90
4
  1
 \P \P \P \P \P \P \P \P \P \P \P \P \P \P                                                                          TRAGSCHIENE_TS15_104MM-KAT
304
ACVALUE_END
170
4
140
1.6
 64
5
171
1
172
0
173
1
174
0
175
1
176
1
 91
1
178
0
145
0.0
170
1
171
1
172
0
173
1
174
0
175
1
176
1
 91
1
178
0
145
0.0
170
1
171
1
172
0
173
1
174
0
175
1
176
1
 91
1
178
0
145
0.0
170
1
171
1
172
0
173
0
174
0
175
3
176
1
 91
33
178
0
145
0.0
301
CELL_VALUE
 90
4
  1
(Zeichnungsnummer)
304
ACVALUE_END
170
4
140
2.0
171
1
172
0
173
1
174
0
175
1
176
1
 91
1
178
0
145
0.0
170
1
171
1
172
0
173
1
174
0
175
1
176
1
 91
1
178
0
145
0.0
170
4
171
1
172
0
173
0
174
0
175
5
176
1
 91
1
178
0
145
0.0
170
1
171
1
172
0
173
1
174
0
175
1
176
1
 91
1
178
0
145
0.0
170
1
171
1
172
0
173
1
174
0
175
1
176
1
 91
1
178
0
145
0.0
170
1
171
1
172
0
173
1
174
0
175
1
176
1
 91
1
178
0
145
0.0
170
1
171
1
172
0
173
1
174
0
175
1
176
1
 91
1
178
0
145
0.0
170
1
171
1
172
0
173
0
174
0
175
1
176
1
 91
41
178
0
145
0.0
301
CELL_VALUE
 90
4
  1
Blatt
304
ACVALUE_END
170
4
140
2.0
 64
5
171
1
172
0
173
0
174
0
175
1
176
1
 91
1
178
0
145
0.0
170
1
171
1
172
0
173
0
174
0
175
1
176
1
 91
41
178
0
145
0.0
301
CELL_VALUE
 90
4
  1
 
304
ACVALUE_END
170
4
140
2.0
 64
5
171
1
172
0
173
0
174
0
175
1
176
1
 91
1
178
0
145
0.0
170
1
171
1
172
0
173
0
174
0
175
1
176
1
 91
1
178
0
145
0.0
170
1
171
1
172
0
173
0
174
0
175
1
176
1
 91
41
178
0
145
0.0
301
CELL_VALUE
 90
4
  1
 
304
ACVALUE_END
170
4
140
3.5
 64
5
171
1
172
0
173
0
174
0
175
1
176
1
 91
41
178
0
145
0.0
301
CELL_VALUE
 90
4
  1
Status
304
ACVALUE_END
170
4
140
2.0
 64
5
171
1
172
0
173
0
174
0
175
2
176
1
 91
1
178
0
145
0.0
170
1
171
1
172
0
173
1
174
0
175
1
176
1
 91
1
178
0
145
0.0
170
4
171
1
172
0
173
0
174
0
175
10
176
2
 91
33
178
0
145
0.0
301
CELL_VALUE
 90
4
  1
.
304
ACVALUE_END
170
1
140
3.5
171
1
172
0
173
1
174
0
175
1
176
1
 91
1
178
0
145
0.0
170
1
171
1
172
0
173
1
174
0
175
1
176
1
 91
1
178
0
145
0.0
170
1
171
1
172
0
173
1
174
0
175
1
176
1
 91
1
178
0
145
0.0
170
1
171
1
172
0
173
1
174
0
175
1
176
1
 91
1
178
0
145
0.0
170
1
171
1
172
0
173
1
174
0
175
1
176
1
 91
1
178
0
145
0.0
170
1
171
1
172
0
173
1
174
0
175
1
176
1
 91
1
178
0
145
0.0
170
1
171
1
172
0
173
1
174
0
175
1
176
1
 91
1
178
0
145
0.0
170
1
171
1
172
0
173
1
174
0
175
1
176
1
 91
1
178
0
145
0.0
170
1
171
1
172
0
173
1
174
0
175
1
176
1
 91
1
178
0
145
0.0
170
1
171
1
172
0
173
0
174
0
175
1
176
1
 91
1
178
0
145
0.0
170
1
171
1
172
0
173
0
174
0
175
1
176
1
 91
1
178
0
145
0.0
170
1
171
1
172
0
173
0
174
0
175
1
176
1
 91
1
178
0
145
0.0
170
1
171
1
172
0
173
0
174
0
175
1
176
1
 91
1
178
0
145
0.0
170
1
171
1
172
0
173
0
174
0
175
1
176
1
 91
41
178
0
145
0.0
301
CELL_VALUE
 90
4
  1
Vers.
304
ACVALUE_END
170
4
140
2.0
 64
5
171
1
172
0
173
0
174
0
175
1
176
1
 91
41
178
0
145
0.0
301
CELL_VALUE
 90
4
  1
 
304
ACVALUE_END
170
5
140
3.5
 64
5
171
1
172
0
173
0
174
0
175
1
176
1
 91
1
178
0
145
0.0
170
1
171
1
172
0
173
1
174
0
175
1
176
1
 91
1
178
0
145
0.0
170
1
171
1
172
0
173
1
174
0
175
1
176
1
 91
1
178
0
145
0.0
170
1
171
1
172
0
173
1
174
0
175
1
176
1
 91
1
178
0
145
0.0
170
1
171
1
172
0
173
1
174
0
175
1
176
1
 91
1
178
0
145
0.0
170
1
171
1
172
0
173
1
174
0
175
1
176
1
 91
1
178
0
145
0.0
170
1
171
1
172
0
173
1
174
0
175
1
176
1
 91
1
178
0
145
0.0
170
1
171
1
172
0
173
1
174
0
175
1
176
1
 91
1
178
0
145
0.0
170
1
171
1
172
0
173
1
174
0
175
1
176
1
 91
1
178
0
145
0.0
170
1
171
1
172
0
173
1
174
0
175
1
176
1
 91
1
178
0
145
0.0
170
1
171
1
172
0
173
1
174
0
175
1
176
1
 91
1
178
0
145
0.0
170
1
171
1
172
0
173
0
174
0
175
1
176
1
 91
1
178
0
145
0.0
170
1
171
1
172
0
173
0
174
0
175
1
176
1
 91
1
178
0
145
0.0
170
1
171
1
172
0
173
0
174
0
175
1
176
1
 91
1
178
0
145
0.0
170
1
171
1
172
0
173
0
174
0
175
1
176
1
 91
1
178
0
145
0.0
170
1
171
1
172
0
173
0
174
0
175
1
176
1
 91
41
178
0
145
0.0
301
CELL_VALUE
 90
4
  1
Gepr.
304
ACVALUE_END
170
4
140
2.0
 64
5
171
1
172
0
173
0
174
0
175
1
176
1
 91
41
178
0
145
0.0
301
CELL_VALUE
 90
4
  1
22.02.11
304
ACVALUE_END
170
4
140
2.0
 64
5
171
1
172
0
173
0
174
0
175
1
176
1
 91
41
178
0
145
0.0
301
CELL_VALUE
 90
4
  1
UWi
304
ACVALUE_END
170
4
140
2.0
 64
5
171
1
172
0
173
0
174
0
175
10
176
2
 91
33
178
0
145
0.0
301
CELL_VALUE
 90
4
  1
Tragschiene TS 15/104mm
304
ACVALUE_END
170
1
140
3.5
171
1
172
0
173
1
174
0
175
1
176
1
 91
1
178
0
145
0.0
170
1
171
1
172
0
173
1
174
0
175
1
176
1
 91
1
178
0
145
0.0
170
1
171
1
172
0
173
1
174
0
175
1
176
1
 91
1
178
0
145
0.0
170
1
171
1
172
0
173
1
174
0
175
1
176
1
 91
1
178
0
145
0.0
170
1
171
1
172
0
173
1
174
0
175
1
176
1
 91
1
178
0
145
0.0
170
1
171
1
172
0
173
1
174
0
175
1
176
1
 91
1
178
0
145
0.0
170
1
171
1
172
0
173
1
174
0
175
1
176
1
 91
1
178
0
145
0.0
170
1
171
1
172
0
173
1
174
0
175
1
176
1
 91
1
178
0
145
0.0
170
1
171
1
172
0
173
1
174
0
175
1
176
1
 91
1
178
0
145
0.0
170
1
171
1
172
0
173
0
174
0
175
4
176
1
 91
33
178
0
145
0.0
301
CELL_VALUE
 90
4
  1
 
304
ACVALUE_END
170
4
140
2.0
171
1
172
0
173
1
174
0
175
1
176
1
 91
1
178
0
145
0.0
170
1
171
1
172
0
173
1
174
0
175
1
176
1
 91
1
178
0
145
0.0
170
1
171
1
172
0
173
1
174
0
175
1
176
1
 91
1
178
0
145
0.0
170
4
171
1
172
0
173
0
174
0
175
1
176
1
 91
41
178
0
145
0.0
301
CELL_VALUE
 90
4
  1
Bearb.
304
ACVALUE_END
170
4
140
2.0
 64
5
171
1
172
0
173
0
174
0
175
1
176
1
 91
41
178
0
145
0.0
301
CELL_VALUE
 90
4
  1
 
304
ACVALUE_END
170
4
140
2.0
 64
5
171
1
172
0
173
0
174
0
175
1
176
1
 91
41
178
0
145
0.0
301
CELL_VALUE
 90
4
  1
 
304
ACVALUE_END
170
4
140
2.0
 64
5
171
1
172
0
173
1
174
0
175
1
176
1
 91
1
178
0
145
0.0
170
1
171
1
172
0
173
1
174
0
175
1
176
1
 91
1
178
0
145
0.0
170
1
171
1
172
0
173
1
174
0
175
1
176
1
 91
1
178
0
145
0.0
170
1
171
1
172
0
173
1
174
0
175
1
176
1
 91
1
178
0
145
0.0
170
1
171
1
172
0
173
1
174
0
175
1
176
1
 91
1
178
0
145
0.0
170
1
171
1
172
0
173
1
174
0
175
1
176
1
 91
1
178
0
145
0.0
170
1
171
1
172
0
173
1
174
0
175
1
176
1
 91
1
178
0
145
0.0
170
1
171
1
172
0
173
1
174
0
175
1
176
1
 91
1
178
0
145
0.0
170
1
171
1
172
0
173
1
174
0
175
1
176
1
 91
1
178
0
145
0.0
170
1
171
1
172
0
173
1
174
0
175
1
176
1
 91
1
178
0
145
0.0
170
1
171
1
172
0
173
0
174
0
175
1
176
1
 91
41
178
0
145
0.0
301
CELL_VALUE
 90
4
  1
   \P \P 
304
ACVALUE_END
170
7
140
2.5
 64
5
171
1
172
0
173
0
174
0
175
3
176
1
 91
1
178
0
145
0.0
170
1
171
1
172
0
173
1
174
0
175
1
176
1
 91
1
178
0
145
0.0
170
1
171
1
172
0
173
1
174
0
175
1
176
1
 91
1
178
0
145
0.0
170
1
171
1
172
0
173
0
174
0
175
1
176
1
 91
1
178
0
145
0.0
170
1
171
1
172
0
173
0
174
0
175
1
176
1
 91
41
178
0
145
0.0
301
CELL_VALUE
 90
4
  1
Datum
304
ACVALUE_END
170
4
140
2.0
 64
5
171
1
172
0
173
0
174
0
175
1
176
1
 91
41
178
0
145
0.0
301
CELL_VALUE
 90
4
  1
Name
304
ACVALUE_END
170
4
140
2.0
 64
5
171
1
172
0
173
0
174
0
175
2
176
1
 91
33
178
0
145
0.0
301
CELL_VALUE
 90
4
  1
(Benennung)
304
ACVALUE_END
170
4
140
2.0
171
1
172
0
173
1
174
0
175
1
176
1
 91
1
178
0
145
0.0
170
4
171
1
172
0
173
0
174
0
175
8
176
1
 91
1
178
0
145
0.0
170
1
171
1
172
0
173
1
174
0
175
1
176
1
 91
1
178
0
145
0.0
170
1
171
1
172
0
173
1
174
0
175
1
176
1
 91
1
178
0
145
0.0
170
1
171
1
172
0
173
1
174
0
175
1
176
1
 91
1
178
0
145
0.0
170
1
171
1
172
0
173
1
174
0
175
1
176
1
 91
1
178
0
145
0.0
170
1
171
1
172
0
173
1
174
0
175
1
176
1
 91
1
178
0
145
0.0
170
1
171
1
172
0
173
1
174
0
175
1
176
1
 91
1
178
0
145
0.0
170
1
171
1
172
0
173
1
174
0
175
1
176
1
 91
1
178
0
145
0.0
170
1
171
1
172
0
173
0
174
0
175
4
176
3
 91
1
178
0
145
0.0
170
1
171
1
172
0
173
1
174
0
175
1
176
1
 91
1
178
0
145
0.0
170
1
171
1
172
0
173
1
174
0
175
1
176
1
 91
1
178
0
145
0.0
170
1
171
1
172
0
173
1
174
0
175
1
176
1
 91
1
178
0
145
0.0
170
1
171
1
172
0
173
0
174
0
175
2
176
3
 91
33
178
0
145
0.0
301
CELL_VALUE
 90
4
  1
 
304
ACVALUE_END
170
5
140
3.5
171
1
172
0
173
1
174
0
175
1
176
1
 91
1
178
0
145
0.0
170
5
171
1
172
0
173
0
174
0
175
1
176
3
 91
1
178
0
145
0.0
170
1
171
1
172
0
173
0
174
0
175
3
176
1
 91
1
178
0
145
0.0
170
1
171
1
172
0
173
1
174
0
175
1
176
1
 91
1
178
0
145
0.0
170
1
171
1
172
0
173
1
174
0
175
1
176
1
 91
1
178
0
145
0.0
170
1
171
1
172
0
173
0
174
0
175
7
176
2
 91
33
178
0
145
0.0
301
CELL_VALUE
 90
4
  1
Z-121-01
304
ACVALUE_END
170
4
140
2.5
171
1
172
0
173
1
174
0
175
1
176
1
 91
1
178
0
145
0.0
170
1
171
1
172
0
173
1
174
0
175
1
176
1
 91
1
178
0
145
0.0
170
1
171
1
172
0
173
1
174
0
175
1
176
1
 91
1
178
0
145
0.0
170
1
171
1
172
0
173
1
174
0
175
1
176
1
 91
1
178
0
145
0.0
170
1
171
1
172
0
173
1
174
0
175
1
176
1
 91
1
178
0
145
0.0
170
1
171
1
172
0
173
1
174
0
175
1
176
1
 91
1
178
0
145
0.0
170
4
171
1
172
0
173
1
174
0
175
1
176
1
 91
1
178
0
145
0.0
170
1
171
1
172
0
173
1
174
0
175
1
176
1
 91
1
178
0
145
0.0
170
1
171
1
172
0
173
1
174
0
175
1
176
1
 91
1
178
0
145
0.0
170
1
171
1
172
0
173
1
174
0
175
1
176
1
 91
1
178
0
145
0.0
170
1
171
1
172
0
173
1
174
0
175
1
176
1
 91
1
178
0
145
0.0
170
1
171
1
172
0
173
1
174
0
175
1
176
1
 91
1
178
0
145
0.0
170
1
171
1
172
0
173
1
174
0
175
1
176
1
 91
1
178
0
145
0.0
170
1
171
1
172
0
173
0
174
0
175
3
176
1
 91
33
178
0
145
0.0
301
CELL_VALUE
 90
4
  1
(Werkstoff,Halbzeug)
304
ACVALUE_END
170
4
140
2.0
171
1
172
0
173
1
174
0
175
1
176
1
 91
1
178
0
145
0.0
170
1
171
1
172
0
173
1
174
0
175
1
176
1
 91
1
178
0
145
0.0
170
4
171
1
172
0
173
1
174
0
175
1
176
1
 91
1
178
0
145
0.0
170
1
171
1
172
0
173
1
174
0
175
1
176
1
 91
1
178
0
145
0.0
170
1
171
1
172
0
173
1
174
0
175
1
176
1
 91
1
178
0
145
0.0
170
1
171
1
172
0
173
1
174
0
175
1
176
1
 91
1
178
0
145
0.0
170
1
171
1
172
0
173
1
174
0
175
1
176
1
 91
1
178
0
145
0.0
170
1
171
1
172
0
173
1
174
0
175
1
176
1
 91
1
178
0
145
0.0
170
1
171
1
172
0
173
1
174
0
175
1
176
1
 91
1
178
0
145
0.0
170
1
171
1
172
0
173
1
174
0
175
1
176
1
 91
1
178
0
145
0.0
170
1
171
1
172
0
173
1
174
0
175
1
176
1
 91
1
178
0
145
0.0
170
1
171
1
172
0
173
1
174
0
175
1
176
1
 91
1
178
0
145
0.0
170
1
171
1
172
0
173
1
174
0
175
1
176
1
 91
1
178
0
145
0.0
170
1
171
1
172
0
173
1
174
0
175
1
176
1
 91
1
178
0
145
0.0
170
1
171
1
172
0
173
1
174
0
175
1
176
1
 91
1
178
0
145
0.0
170
1
171
1
172
0
173
1
174
0
175
1
176
1
 91
1
178
0
145
0.0
170
1
171
1
172
0
173
0
174
0
175
2
176
1
 91
1
178
0
145
0.0
170
1
171
1
172
0
173
1
174
0
175
1
176
1
 91
1
178
0
145
0.0
170
1
171
1
172
0
173
0
174
0
175
3
176
2
 91
33
178
0
145
0.0
301
CELL_VALUE
 90
4
  1
1:1
304
ACVALUE_END
170
4
140
3.5
171
1
172
0
173
1
174
0
175
1
176
1
 91
1
178
0
145
0.0
170
1
171
1
172
0
173
1
174
0
175
1
176
1
 91
1
178
0
145
0.0
170
4
171
1
172
0
173
0
174
0
175
2
176
1
 91
1
178
0
145
0.0
170
1
171
1
172
0
173
1
174
0
175
1
176
1
 91
1
178
0
145
0.0
170
1
171
1
172
0
173
0
174
0
175
1
176
1
 91
41
178
0
145
0.0
301
CELL_VALUE
 90
4
  1
 
304
ACVALUE_END
170
7
140
3.5
 64
3
171
1
172
0
173
0
174
0
175
2
176
1
 91
1
178
0
145
0.0
170
1
171
1
172
0
173
1
174
0
175
1
176
1
 91
1
178
0
145
0.0
170
1
171
1
172
0
173
0
174
0
175
4
176
1
 91
33
178
0
145
0.0
301
CELL_VALUE
 90
4
  1
(Verwendungsbereich)
304
ACVALUE_END
170
4
140
2.0
171
1
172
0
173
1
174
0
175
1
176
1
 91
1
178
0
145
0.0
170
1
171
1
172
0
173
1
174
0
175
1
176
1
 91
1
178
0
145
0.0
170
1
171
1
172
0
173
1
174
0
175
1
176
1
 91
1
178
0
145
0.0
170
4
171
1
172
0
173
0
174
0
175
2
176
1
 91
33
178
0
145
0.0
301
CELL_VALUE
 90
4
  1
(Zul.Abw.)
304
ACVALUE_END
170
4
140
2.0
171
1
172
0
173
1
174
0
175
1
176
1
 91
1
178
0
145
0.0
170
4
171
1
172
0
173
0
174
0
175
1
176
1
 91
41
178
0
145
0.0
301
CELL_VALUE
 90
4
  1
(Oberflaeche)
304
ACVALUE_END
170
4
140
2.0
 64
5
171
1
172
0
173
0
174
0
175
2
176
1
 91
33
178
0
145
0.0
301
CELL_VALUE
 90
4
  1
Masstab
304
ACVALUE_END
170
4
140
2.0
171
1
172
0
173
1
174
0
175
1
176
1
 91
1
178
0
145
0.0
170
4
171
1
172
0
173
1
174
0
175
1
176
1
 91
1
178
0
145
0.0
170
1
171
1
172
0
173
1
174
0
175
1
176
1
 91
1
178
0
145
0.0
170
1
171
1
172
0
173
1
174
0
175
1
176
1
 91
1
178
0
145
0.0
170
1
171
1
172
0
173
0
174
0
175
2
176
1
 91
33
178
0
145
0.0
301
CELL_VALUE
 90
4
  1
(Volumen in cm³)
304
ACVALUE_END
170
4
140
1.8
171
1
172
0
173
1
174
0
175
1
176
1
 91
1
178
0
145
0.0
170
4
171
1
172
0
173
0
174
0
175
1
176
1
 91
1
178
0
145
0.0
170
1
171
1
172
0
173
0
174
0
175
2
176
1
 91
1
178
0
145
0.0
170
1
171
1
172
0
173
1
174
0
175
1
176
1
 91
1
178
0
145
0.0
170
1
  0
ACAD_TABLE
  5
328
100
AcDbEntity
  8
0
 62
2
  6
CONTINUOUS
100
AcDbBlockReference
  2
*T2
 10
19.9999360663
 20
5.0000047596
 30
0.0
100
AcDbTable
342
       382
343
216
 11
1.0
 21
0.0
 31
0.0
 90
6
 91
13
 92
17
 93
20
 94
0
 95
0
 96
0
 70
1
 41
0.0
141
4.0
141
4.0
141
4.0
141
4.0
141
4.0
141
4.0
141
4.0
141
4.0
141
4.0
141
5.0
141
5.0
141
3.5
141
3.0
142
8.0
142
26.0
142
13.0
142
8.0
142
10.0
142
15.0
142
18.0
142
11.0
142
9.0
142
9.0
142
6.0
142
9.0
142
11.0
142
10.0
142
9.0
142
7.0
142
6.0
171
1
172
0
173
0
174
0
175
1
176
1
 91
41
178
0
145
0.0
301
CELL_VALUE
 90
4
  1
Zust.
304
ACVALUE_END
170
4
140
2.0
 64
5
171
1
172
0
173
0
174
0
175
1
176
1
 91
41
178
0
145
0.0
301
CELL_VALUE
 90
4
  1
Aenderung
304
ACVALUE_END
170
4
140
2.0
 64
5
171
1
172
0
173
0
174
0
175
1
176
1
 91
41
178
0
145
0.0
301
CELL_VALUE
 90
4
  1
Datum
304
ACVALUE_END
170
4
140
2.0
 64
5
171
1
172
0
173
0
174
0
175
1
176
1
 91
41
178
0
145
0.0
301
CELL_VALUE
 90
4
  1
Name
304
ACVALUE_END
170
4
140
2.0
 64
5
171
1
172
0
173
0
174
0
175
1
176
1
 91
41
178
0
145
0.0
301
CELL_VALUE
 90
4
  1
(Urspr.)
304
ACVALUE_END
170
4
140
1.8
 64
5
171
1
172
0
173
0
174
0
175
2
176
1
 91
33
178
0
145
0.0
301
CELL_VALUE
 90
4
  1
 
304
ACVALUE_END
170
4
140
1.8
171
1
172
0
173
1
174
0
175
1
176
1
 91
1
178
0
145
0.0
170
4
171
1
172
0
173
0
174
0
175
1
176
1
 91
41
178
0
145
0.0
301
CELL_VALUE
 90
4
  1
(Ersatz fuer:)
304
ACVALUE_END
170
4
140
2.0
 64
5
171
1
172
0
173
0
174
0
175
1
176
1
 91
1
178
0
145
0.0
170
1
171
1
172
0
173
0
174
0
175
8
176
1
 91
33
178
0
145
0.0
301
CELL_VALUE
 90
4
  1
.
304
ACVALUE_END
170
4
140
2.0
171
1
172
0
173
1
174
0
175
1
176
1
 91
1
178
0
145
0.0
170
1
171
1
172
0
173
1
174
0
175
1
176
1
 91
1
178
0
145
0.0
170
1
171
1
172
0
173
1
174
0
175
1
176
1
 91
1
178
0
145
0.0
170
1
171
1
172
0
173
1
174
0
175
1
176
1
 91
1
178
0
145
0.0
170
1
171
1
172
0
173
1
174
0
175
1
176
1
 91
1
178
0
145
0.0
170
1
171
1
172
0
173
1
174
0
175
1
176
1
 91
1
178
0
145
0.0
170
1
171
1
172
0
173
1
174
0
175
1
176
1
 91
1
178
0
145
0.0
170
4
171
1
172
0
173
0
174
0
175
1
176
1
 91
1
178
0
145
0.0
170
4
171
1
172
0
173
0
174
0
175
1
176
1
 91
41
178
0
145
0.0
301
CELL_VALUE
 90
4
  1
.
304
ACVALUE_END
170
4
140
1.6
 64
5
171
1
172
0
173
0
174
0
175
1
176
1
 91
41
178
0
145
0.0
301
CELL_VALUE
 90
4
  1
.
304
ACVALUE_END
170
4
140
1.6
 64
5
171
1
172
0
173
0
174
0
175
1
176
1
 91
41
178
0
145
0.0
301
CELL_VALUE
 90
4
  1
.
304
ACVALUE_END
170
4
140
1.6
 64
5
171
1
172
0
173
0
174
0
175
3
176
3
 91
33
178
0
145
0.0
301
CELL_VALUE
 90
4
  1
spelsberg
304
ACVALUE_END
170
5
140
6.0
171
1
172
0
173
1
174
0
175
1
176
1
 91
1
178
0
145
0.0
170
1
171
1
172
0
173
1
174
0
175
1
176
1
 91
1
178
0
145
0.0
170
5
171
1
172
0
173
0
174
0
175
8
176
2
 91
33
178
0
145
0.0
301
CELL_VALUE
 90
4
  1
M-197-107-01
304
ACVALUE_END
170
1
140
3.5
171
1
172
0
173
1
174
0
175
1
176
1
 91
1
178
0
145
0.0
170
1
171
1
172
0
173
1
174
0
175
1
176
1
 91
1
178
0
145
0.0
170
1
171
1
172
0
173
1
174
0
175
1
176
1
 91
1
178
0
145
0.0
170
1
171
1
172
0
173
1
174
0
175
1
176
1
 91
1
178
0
145
0.0
170
1
171
1
172
0
173
1
174
0
175
1
176
1
 91
1
178
0
145
0.0
170
1
171
1
172
0
173
1
174
0
175
1
176
1
 91
1
178
0
145
0.0
170
1
171
1
172
0
173
1
174
0
175
1
176
1
 91
1
178
0
145
0.0
170
1
171
1
172
0
173
0
174
0
175
1
176
1
 91
1
178
0
145
0.0
170
1
171
1
172
0
173
0
174
0
175
1
176
1
 91
41
178
0
145
0.0
301
CELL_VALUE
 90
4
  1
Bl.
304
ACVALUE_END
170
4
140
2.0
 64
5
171
1
172
0
173
0
174
0
175
1
176
1
 91
41
178
0
145
0.0
301
CELL_VALUE
 90
4
  1
                     Schutzvermerk nach DIN 34 beachten!
304
ACVALUE_END
170
4
140
2.0
 64
5
171
1
172
0
173
0
174
0
175
1
176
1
 91
1
178
0
145
0.0
170
1
171
1
172
0
173
0
174
0
175
1
176
1
 91
1
178
0
145
0.0
170
1
171
1
172
0
173
0
174
0
175
1
176
1
 91
1
178
0
145
0.0
170
1
171
1
172
0
173
1
174
0
175
1
176
1
 91
1
178
0
145
0.0
170
1
171
1
172
0
173
1
174
0
175
1
176
1
 91
1
178
0
145
0.0
170
1
171
1
172
0
173
1
174
0
175
1
176
1
 91
1
178
0
145
0.0
170
1
171
1
172
0
173
1
174
0
175
1
176
1
 91
1
178
0
145
0.0
170
1
171
1
172
0
173
1
174
0
175
1
176
1
 91
1
178
0
145
0.0
170
1
171
1
172
0
173
1
174
0
175
1
176
1
 91
1
178
0
145
0.0
170
1
171
1
172
0
173
1
174
0
175
1
176
1
 91
1
178
0
145
0.0
170
1
171
1
172
0
173
1
174
0
175
1
176
1
 91
1
178
0
145
0.0
170
1
171
1
172
0
173
1
174
0
175
1
176
1
 91
1
178
0
145
0.0
170
1
171
1
172
0
173
1
174
0
175
1
176
1
 91
1
178
0
145
0.0
170
1
171
1
172
0
173
1
174
0
175
1
176
1
 91
1
178
0
145
0.0
170
1
171
1
172
0
173
0
174
0
175
1
176
1
 91
41
178
0
145
0.0
301
CELL_VALUE
 90
4
  1
1
304
ACVALUE_END
170
4
140
2.0
 64
5
171
1
172
0
173
0
174
0
175
1
176
1
 91
1
178
0
145
0.0
170
1
171
1
172
0
173
0
174
0
175
1
176
1
 91
41
178
0
145
0.0
301
CELL_VALUE
 90
4
  1
 \P \P \P \P \P \P \P \P \P \P \P \P \P \P                                           (Dateiname Modell:)
304
ACVALUE_END
170
4
140
1.6
 64
5
171
1
172
0
173
0
174
0
175
1
176
1
 91
41
178
0
145
0.0
301
CELL_VALUE
 90
4
  1
 \P \P \P \P \P \P \P \P \P \P \P \P \P \P                                                     TRAGSCHIENE_TS15_104MM-KAT
304
ACVALUE_END
170
4
140
1.6
 64
5
171
1
172
0
173
0
174
0
175
1
176
1
 91
41
178
0
145
0.0
301
CELL_VALUE
 90
4
  1
 \P \P \P \P \P \P \P \P \P \P \P \P \P \P                                                                 (Dateiname Zeichnung:)
304
ACVALUE_END
170
4
140
1.6
 64
5
171
1
172
0
173
0
174
0
175
1
176
1
 91
41
178
0
145
0.0
301
CELL_VALUE
 90
4
  1
 \P \P \P \P \P \P \P \P \P \P \P \P \P \P                                                                          TRAGSCHIENE_TS15_104MM-KAT
304
ACVALUE_END
170
4
140
1.6
 64
5
171
1
172
0
173
1
174
0
175
1
176
1
 91
1
178
0
145
0.0
170
1
171
1
172
0
173
1
174
0
175
1
176
1
 91
1
178
0
145
0.0
170
1
171
1
172
0
173
1
174
0
175
1
176
1
 91
1
178
0
145
0.0
170
1
171
1
172
0
173
0
174
0
175
3
176
1
 91
33
178
0
145
0.0
301
CELL_VALUE
 90
4
  1
(Zeichnungsnummer)
304
ACVALUE_END
170
4
140
2.0
171
1
172
0
173
1
174
0
175
1
176
1
 91
1
178
0
145
0.0
170
1
171
1
172
0
173
1
174
0
175
1
176
1
 91
1
178
0
145
0.0
170
4
171
1
172
0
173
0
174
0
175
5
176
1
 91
1
178
0
145
0.0
170
1
171
1
172
0
173
1
174
0
175
1
176
1
 91
1
178
0
145
0.0
170
1
171
1
172
0
173
1
174
0
175
1
176
1
 91
1
178
0
145
0.0
170
1
171
1
172
0
173
1
174
0
175
1
176
1
 91
1
178
0
145
0.0
170
1
171
1
172
0
173
1
174
0
175
1
176
1
 91
1
178
0
145
0.0
170
1
171
1
172
0
173
0
174
0
175
1
176
1
 91
41
178
0
145
0.0
301
CELL_VALUE
 90
4
  1
Blatt
304
ACVALUE_END
170
4
140
2.0
 64
5
171
1
172
0
173
0
174
0
175
1
176
1
 91
1
178
0
145
0.0
170
1
171
1
172
0
173
0
174
0
175
1
176
1
 91
41
178
0
145
0.0
301
CELL_VALUE
 90
4
  1
 
304
ACVALUE_END
170
4
140
2.0
 64
5
171
1
172
0
173
0
174
0
175
1
176
1
 91
1
178
0
145
0.0
170
1
171
1
172
0
173
0
174
0
175
1
176
1
 91
1
178
0
145
0.0
170
1
171
1
172
0
173
0
174
0
175
1
176
1
 91
41
178
0
145
0.0
301
CELL_VALUE
 90
4
  1
 
304
ACVALUE_END
170
4
140
3.5
 64
5
171
1
172
0
173
0
174
0
175
1
176
1
 91
41
178
0
145
0.0
301
CELL_VALUE
 90
4
  1
Status
304
ACVALUE_END
170
4
140
2.0
 64
5
171
1
172
0
173
0
174
0
175
2
176
1
 91
1
178
0
145
0.0
170
1
171
1
172
0
173
1
174
0
175
1
176
1
 91
1
178
0
145
0.0
170
4
171
1
172
0
173
0
174
0
175
10
176
2
 91
33
178
0
145
0.0
301
CELL_VALUE
 90
4
  1
.
304
ACVALUE_END
170
1
140
3.5
171
1
172
0
173
1
174
0
175
1
176
1
 91
1
178
0
145
0.0
170
1
171
1
172
0
173
1
174
0
175
1
176
1
 91
1
178
0
145
0.0
170
1
171
1
172
0
173
1
174
0
175
1
176
1
 91
1
178
0
145
0.0
170
1
171
1
172
0
173
1
174
0
175
1
176
1
 91
1
178
0
145
0.0
170
1
171
1
172
0
173
1
174
0
175
1
176
1
 91
1
178
0
145
0.0
170
1
171
1
172
0
173
1
174
0
175
1
176
1
 91
1
178
0
145
0.0
170
1
171
1
172
0
173
1
174
0
175
1
176
1
 91
1
178
0
145
0.0
170
1
171
1
172
0
173
1
174
0
175
1
176
1
 91
1
178
0
145
0.0
170
1
171
1
172
0
173
1
174
0
175
1
176
1
 91
1
178
0
145
0.0
170
1
171
1
172
0
173
0
174
0
175
1
176
1
 91
1
178
0
145
0.0
170
1
171
1
172
0
173
0
174
0
175
1
176
1
 91
1
178
0
145
0.0
170
1
171
1
172
0
173
0
174
0
175
1
176
1
 91
1
178
0
145
0.0
170
1
171
1
172
0
173
0
174
0
175
1
176
1
 91
1
178
0
145
0.0
170
1
171
1
172
0
173
0
174
0
175
1
176
1
 91
41
178
0
145
0.0
301
CELL_VALUE
 90
4
  1
Vers.
304
ACVALUE_END
170
4
140
2.0
 64
5
171
1
172
0
173
0
174
0
175
1
176
1
 91
41
178
0
145
0.0
301
CELL_VALUE
 90
4
  1
 
304
ACVALUE_END
170
5
140
3.5
 64
5
171
1
172
0
173
0
174
0
175
1
176
1
 91
1
178
0
145
0.0
170
1
171
1
172
0
173
1
174
0
175
1
176
1
 91
1
178
0
145
0.0
170
1
171
1
172
0
173
1
174
0
175
1
176
1
 91
1
178
0
145
0.0
170
1
171
1
172
0
173
1
174
0
175
1
176
1
 91
1
178
0
145
0.0
170
1
171
1
172
0
173
1
174
0
175
1
176
1
 91
1
178
0
145
0.0
170
1
171
1
172
0
173
1
174
0
175
1
176
1
 91
1
178
0
145
0.0
170
1
171
1
172
0
173
1
174
0
175
1
176
1
 91
1
178
0
145
0.0
170
1
171
1
172
0
173
1
174
0
175
1
176
1
 91
1
178
0
145
0.0
170
1
171
1
172
0
173
1
174
0
175
1
176
1
 91
1
178
0
145
0.0
170
1
171
1
172
0
173
1
174
0
175
1
176
1
 91
1
178
0
145
0.0
170
1
171
1
172
0
173
1
174
0
175
1
176
1
 91
1
178
0
145
0.0
170
1
171
1
172
0
173
0
174
0
175
1
176
1
 91
1
178
0
145
0.0
170
1
171
1
172
0
173
0
174
0
175
1
176
1
 91
1
178
0
145
0.0
170
1
171
1
172
0
173
0
174
0
175
1
176
1
 91
1
178
0
145
0.0
170
1
171
1
172
0
173
0
174
0
175
1
176
1
 91
1
178
0
145
0.0
170
1
171
1
172
0
173
0
174
0
175
1
176
1
 91
41
178
0
145
0.0
301
CELL_VALUE
 90
4
  1
Gepr.
304
ACVALUE_END
170
4
140
2.0
 64
5
171
1
172
0
173
0
174
0
175
1
176
1
 91
41
178
0
145
0.0
301
CELL_VALUE
 90
4
  1
22.02.11
304
ACVALUE_END
170
4
140
2.0
 64
5
171
1
172
0
173
0
174
0
175
1
176
1
 91
41
178
0
145
0.0
301
CELL_VALUE
 90
4
  1
UWi
304
ACVALUE_END
170
4
140
2.0
 64
5
171
1
172
0
173
0
174
0
175
10
176
2
 91
33
178
0
145
0.0
301
CELL_VALUE
 90
4
  1
Tragschiene TS 15/104mm
304
ACVALUE_END
170
1
140
3.5
171
1
172
0
173
1
174
0
175
1
176
1
 91
1
178
0
145
0.0
170
1
171
1
172
0
173
1
174
0
175
1
176
1
 91
1
178
0
145
0.0
170
1
171
1
172
0
173
1
174
0
175
1
176
1
 91
1
178
0
145
0.0
170
1
171
1
172
0
173
1
174
0
175
1
176
1
 91
1
178
0
145
0.0
170
1
171
1
172
0
173
1
174
0
175
1
176
1
 91
1
178
0
145
0.0
170
1
171
1
172
0
173
1
174
0
175
1
176
1
 91
1
178
0
145
0.0
170
1
171
1
172
0
173
1
174
0
175
1
176
1
 91
1
178
0
145
0.0
170
1
171
1
172
0
173
1
174
0
175
1
176
1
 91
1
178
0
145
0.0
170
1
171
1
172
0
173
1
174
0
175
1
176
1
 91
1
178
0
145
0.0
170
1
171
1
172
0
173
0
174
0
175
4
176
1
 91
33
178
0
145
0.0
301
CELL_VALUE
 90
4
  1
 
304
ACVALUE_END
170
4
140
2.0
171
1
172
0
173
1
174
0
175
1
176
1
 91
1
178
0
145
0.0
170
1
171
1
172
0
173
1
174
0
175
1
176
1
 91
1
178
0
145
0.0
170
1
171
1
172
0
173
1
174
0
175
1
176
1
 91
1
178
0
145
0.0
170
4
171
1
172
0
173
0
174
0
175
1
176
1
 91
41
178
0
145
0.0
301
CELL_VALUE
 90
4
  1
Bearb.
304
ACVALUE_END
170
4
140
2.0
 64
5
171
1
172
0
173
0
174
0
175
1
176
1
 91
41
178
0
145
0.0
301
CELL_VALUE
 90
4
  1
22.02.11
304
ACVALUE_END
170
4
140
2.0
 64
5
171
1
172
0
173
0
174
0
175
1
176
1
 91
41
178
0
145
0.0
301
CELL_VALUE
 90
4
  1
MGu
304
ACVALUE_END
170
4
140
2.0
 64
5
171
1
172
0
173
1
174
0
175
1
176
1
 91
1
178
0
145
0.0
170
1
171
1
172
0
173
1
174
0
175
1
176
1
 91
1
178
0
145
0.0
170
1
171
1
172
0
173
1
174
0
175
1
176
1
 91
1
178
0
145
0.0
170
1
171
1
172
0
173
1
174
0
175
1
176
1
 91
1
178
0
145
0.0
170
1
171
1
172
0
173
1
174
0
175
1
176
1
 91
1
178
0
145
0.0
170
1
171
1
172
0
173
1
174
0
175
1
176
1
 91
1
178
0
145
0.0
170
1
171
1
172
0
173
1
174
0
175
1
176
1
 91
1
178
0
145
0.0
170
1
171
1
172
0
173
1
174
0
175
1
176
1
 91
1
178
0
145
0.0
170
1
171
1
172
0
173
1
174
0
175
1
176
1
 91
1
178
0
145
0.0
170
1
171
1
172
0
173
1
174
0
175
1
176
1
 91
1
178
0
145
0.0
170
1
171
1
172
0
173
0
174
0
175
1
176
1
 91
41
178
0
145
0.0
301
CELL_VALUE
 90
4
  1
NE 029/10  \P \P 
304
ACVALUE_END
170
7
140
2.5
 64
5
171
1
172
0
173
0
174
0
175
3
176
1
 91
1
178
0
145
0.0
170
1
171
1
172
0
173
1
174
0
175
1
176
1
 91
1
178
0
145
0.0
170
1
171
1
172
0
173
1
174
0
175
1
176
1
 91
1
178
0
145
0.0
170
1
171
1
172
0
173
0
174
0
175
1
176
1
 91
1
178
0
145
0.0
170
1
171
1
172
0
173
0
174
0
175
1
176
1
 91
41
178
0
145
0.0
301
CELL_VALUE
 90
4
  1
Datum
304
ACVALUE_END
170
4
140
2.0
 64
5
171
1
172
0
173
0
174
0
175
1
176
1
 91
41
178
0
145
0.0
301
CELL_VALUE
 90
4
  1
Name
304
ACVALUE_END
170
4
140
2.0
 64
5
171
1
172
0
173
0
174
0
175
2
176
1
 91
33
178
0
145
0.0
301
CELL_VALUE
 90
4
  1
(Benennung)
304
ACVALUE_END
170
4
140
2.0
171
1
172
0
173
1
174
0
175
1
176
1
 91
1
178
0
145
0.0
170
4
171
1
172
0
173
0
174
0
175
8
176
1
 91
1
178
0
145
0.0
170
1
171
1
172
0
173
1
174
0
175
1
176
1
 91
1
178
0
145
0.0
170
1
171
1
172
0
173
1
174
0
175
1
176
1
 91
1
178
0
145
0.0
170
1
171
1
172
0
173
1
174
0
175
1
176
1
 91
1
178
0
145
0.0
170
1
171
1
172
0
173
1
174
0
175
1
176
1
 91
1
178
0
145
0.0
170
1
171
1
172
0
173
1
174
0
175
1
176
1
 91
1
178
0
145
0.0
170
1
171
1
172
0
173
1
174
0
175
1
176
1
 91
1
178
0
145
0.0
170
1
171
1
172
0
173
1
174
0
175
1
176
1
 91
1
178
0
145
0.0
170
1
171
1
172
0
173
0
174
0
175
4
176
3
 91
1
178
0
145
0.0
170
1
171
1
172
0
173
1
174
0
175
1
176
1
 91
1
178
0
145
0.0
170
1
171
1
172
0
173
1
174
0
175
1
176
1
 91
1
178
0
145
0.0
170
1
171
1
172
0
173
1
174
0
175
1
176
1
 91
1
178
0
145
0.0
170
1
171
1
172
0
173
0
174
0
175
2
176
3
 91
33
178
0
145
0.0
301
CELL_VALUE
 90
4
  1
 
304
ACVALUE_END
170
5
140
3.5
171
1
172
0
173
1
174
0
175
1
176
1
 91
1
178
0
145
0.0
170
5
171
1
172
0
173
0
174
0
175
1
176
3
 91
1
178
0
145
0.0
170
1
171
1
172
0
173
0
174
0
175
3
176
1
 91
1
178
0
145
0.0
170
1
171
1
172
0
173
1
174
0
175
1
176
1
 91
1
178
0
145
0.0
170
1
171
1
172
0
173
1
174
0
175
1
176
1
 91
1
178
0
145
0.0
170
1
171
1
172
0
173
0
174
0
175
7
176
2
 91
33
178
0
145
0.0
301
CELL_VALUE
 90
4
  1
Z-121-01
304
ACVALUE_END
170
4
140
2.5
171
1
172
0
173
1
174
0
175
1
176
1
 91
1
178
0
145
0.0
170
1
171
1
172
0
173
1
174
0
175
1
176
1
 91
1
178
0
145
0.0
170
1
171
1
172
0
173
1
174
0
175
1
176
1
 91
1
178
0
145
0.0
170
1
171
1
172
0
173
1
174
0
175
1
176
1
 91
1
178
0
145
0.0
170
1
171
1
172
0
173
1
174
0
175
1
176
1
 91
1
178
0
145
0.0
170
1
171
1
172
0
173
1
174
0
175
1
176
1
 91
1
178
0
145
0.0
170
4
171
1
172
0
173
1
174
0
175
1
176
1
 91
1
178
0
145
0.0
170
1
171
1
172
0
173
1
174
0
175
1
176
1
 91
1
178
0
145
0.0
170
1
171
1
172
0
173
1
174
0
175
1
176
1
 91
1
178
0
145
0.0
170
1
171
1
172
0
173
1
174
0
175
1
176
1
 91
1
178
0
145
0.0
170
1
171
1
172
0
173
1
174
0
175
1
176
1
 91
1
178
0
145
0.0
170
1
171
1
172
0
173
1
174
0
175
1
176
1
 91
1
178
0
145
0.0
170
1
171
1
172
0
173
1
174
0
175
1
176
1
 91
1
178
0
145
0.0
170
1
171
1
172
0
173
0
174
0
175
3
176
1
 91
33
178
0
145
0.0
301
CELL_VALUE
 90
4
  1
(Werkstoff,Halbzeug)
304
ACVALUE_END
170
4
140
2.0
171
1
172
0
173
1
174
0
175
1
176
1
 91
1
178
0
145
0.0
170
1
171
1
172
0
173
1
174
0
175
1
176
1
 91
1
178
0
145
0.0
170
4
171
1
172
0
173
1
174
0
175
1
176
1
 91
1
178
0
145
0.0
170
1
171
1
172
0
173
1
174
0
175
1
176
1
 91
1
178
0
145
0.0
170
1
171
1
172
0
173
1
174
0
175
1
176
1
 91
1
178
0
145
0.0
170
1
171
1
172
0
173
1
174
0
175
1
176
1
 91
1
178
0
145
0.0
170
1
171
1
172
0
173
1
174
0
175
1
176
1
 91
1
178
0
145
0.0
170
1
171
1
172
0
173
1
174
0
175
1
176
1
 91
1
178
0
145
0.0
170
1
171
1
172
0
173
1
174
0
175
1
176
1
 91
1
178
0
145
0.0
170
1
171
1
172
0
173
1
174
0
175
1
176
1
 91
1
178
0
145
0.0
170
1
171
1
172
0
173
1
174
0
175
1
176
1
 91
1
178
0
145
0.0
170
1
171
1
172
0
173
1
174
0
175
1
176
1
 91
1
178
0
145
0.0
170
1
171
1
172
0
173
1
174
0
175
1
176
1
 91
1
178
0
145
0.0
170
1
171
1
172
0
173
1
174
0
175
1
176
1
 91
1
178
0
145
0.0
170
1
171
1
172
0
173
1
174
0
175
1
176
1
 91
1
178
0
145
0.0
170
1
171
1
172
0
173
1
174
0
175
1
176
1
 91
1
178
0
145
0.0
170
1
171
1
172
0
173
0
174
0
175
2
176
1
 91
1
178
0
145
0.0
170
1
171
1
172
0
173
1
174
0
175
1
176
1
 91
1
178
0
145
0.0
170
1
171
1
172
0
173
0
174
0
175
3
176
2
 91
33
178
0
145
0.0
301
CELL_VALUE
 90
4
  1
1:1
304
ACVALUE_END
170
4
140
3.5
171
1
172
0
173
1
174
0
175
1
176
1
 91
1
178
0
145
0.0
170
1
171
1
172
0
173
1
174
0
175
1
176
1
 91
1
178
0
145
0.0
170
4
171
1
172
0
173
0
174
0
175
2
176
1
 91
1
178
0
145
0.0
170
1
171
1
172
0
173
1
174
0
175
1
176
1
 91
1
178
0
145
0.0
170
1
171
1
172
0
173
0
174
0
175
1
176
1
 91
41
178
0
145
0.0
301
CELL_VALUE
 90
4
  1
 
304
ACVALUE_END
170
7
140
3.5
 64
3
171
1
172
0
173
0
174
0
175
2
176
1
 91
1
178
0
145
0.0
170
1
171
1
172
0
173
1
174
0
175
1
176
1
 91
1
178
0
145
0.0
170
1
171
1
172
0
173
0
174
0
175
4
176
1
 91
33
178
0
145
0.0
301
CELL_VALUE
 90
4
  1
(Verwendungsbereich)
304
ACVALUE_END
170
4
140
2.0
171
1
172
0
173
1
174
0
175
1
176
1
 91
1
178
0
145
0.0
170
1
171
1
172
0
173
1
174
0
175
1
176
1
 91
1
178
0
145
0.0
170
1
171
1
172
0
173
1
174
0
175
1
176
1
 91
1
178
0
145
0.0
170
4
171
1
172
0
173
0
174
0
175
2
176
1
 91
33
178
0
145
0.0
301
CELL_VALUE
 90
4
  1
(Zul.Abw.)
304
ACVALUE_END
170
4
140
2.0
171
1
172
0
173
1
174
0
175
1
176
1
 91
1
178
0
145
0.0
170
4
171
1
172
0
173
0
174
0
175
1
176
1
 91
41
178
0
145
0.0
301
CELL_VALUE
 90
4
  1
(Oberflaeche)
304
ACVALUE_END
170
4
140
2.0
 64
5
171
1
172
0
173
0
174
0
175
2
176
1
 91
33
178
0
145
0.0
301
CELL_VALUE
 90
4
  1
Masstab
304
ACVALUE_END
170
4
140
2.0
171
1
172
0
173
1
174
0
175
1
176
1
 91
1
178
0
145
0.0
170
4
171
1
172
0
173
1
174
0
175
1
176
1
 91
1
178
0
145
0.0
170
1
171
1
172
0
173
1
174
0
175
1
176
1
 91
1
178
0
145
0.0
170
1
171
1
172
0
173
1
174
0
175
1
176
1
 91
1
178
0
145
0.0
170
1
171
1
172
0
173
0
174
0
175
2
176
1
 91
33
178
0
145
0.0
301
CELL_VALUE
 90
4
  1
(Volumen in cm³)
304
ACVALUE_END
170
4
140
1.8
171
1
172
0
173
1
174
0
175
1
176
1
 91
1
178
0
145
0.0
170
4
171
1
172
0
173
0
174
0
175
1
176
1
 91
1
178
0
145
0.0
170
1
171
1
172
0
173
0
174
0
175
2
176
1
 91
1
178
0
145
0.0
170
1
171
1
172
0
173
1
174
0
175
1
176
1
 91
1
178
0
145
0.0
170
1
  0
MTEXT
  5
329
100
AcDbEntity
  8
0
100
AcDbMText
 62
5
  6
CONTINUOUS
  7
STANDARD
 71
1
 72
1
 10
120.9689191351
 20
125.8258653782
 30
0.0
 11
1.0
 21
0.0
 31
0.0
 44
0.9
  1
2:1
 40
2.5
 41
4.2857142857
  0
MTEXT
  5
32A
100
AcDbEntity
  8
0
100
AcDbMText
 62
5
  6
CONTINUOUS
  7
STANDARD
 71
1
 72
1
 10
77.1038386467
 20
49.1259362787
 30
0.0
 11
1.0
 21
0.0
 31
0.0
 44
0.9
  1
DIN 7168-m
 40
2.5
 41
19.2261904762
  0
LINE
  5
32B
100
AcDbEntity
  8
0
100
AcDbLine
 62
2
  6
CONTINUOUS
 10
0.0
 20
0.0
 11
210.0
 21
0.0
  0
LINE
  5
32C
100
AcDbEntity
  8
0
100
AcDbLine
 62
7
  6
CONTINUOUS
 10
20.0
 20
5.0
 11
205.0
 21
5.0
  0
LINE
  5
32D
100
AcDbEntity
  8
0
100
AcDbLine
 62
2
  6
CONTINUOUS
 10
0.0
 20
297.0
 11
0.0
 21
0.0
  0
LINE
  5
32E
100
AcDbEntity
  8
0
100
AcDbLine
 62
7
  6
CONTINUOUS
 10
20.0
 20
292.039993
 11
20.0
 21
5.0
  0
LINE
  5
32F
100
AcDbEntity
  8
0
100
AcDbLine
 62
2
  6
CONTINUOUS
 10
0.0
 20
149.52
 11
4.0
 21
148.52
  0
LINE
  5
330
100
AcDbEntity
  8
0
100
AcDbLine
 62
2
  6
CONTINUOUS
 10
4.0
 20
148.52
 11
0.0
 21
147.52
  0
LINE
  5
331
100
AcDbEntity
  8
0
100
AcDbLine
 62
7
  6
CONTINUOUS
 10
205.0
 20
5.0
 11
205.0
 21
292.039993
  0
LINE
  5
332
100
AcDbEntity
  8
0
100
AcDbLine
 62
2
  6
CONTINUOUS
 10
210.0
 20
0.0
 11
210.0
 21
297.0
  0
LINE
  5
333
100
AcDbEntity
  8
0
100
AcDbLine
 62
7
  6
CONTINUOUS
 10
205.0
 20
292.039993
 11
20.0
 21
292.039993
  0
LINE
  5
334
100
AcDbEntity
  8
0
100
AcDbLine
 62
2
  6
CONTINUOUS
 10
210.0
 20
297.0
 11
0.0
 21
297.0
  0
LINE
  5
335
100
AcDbEntity
  8
0
100
AcDbLine
 62
7
  6
CONTINUOUS
 10
61.2684450228
 20
221.2602081978
 11
61.2684450228
 21
206.2602081978
  0
LINE
  5
336
100
AcDbEntity
  8
0
100
AcDbLine
 62
7
  6
CONTINUOUS
 10
65.2684450228
 20
214.6402081978
 11
65.2684450228
 21
212.8802081978
  0
LINE
  5
337
100
AcDbEntity
  8
DEFAULT_1
100
AcDbLine
 62
7
  6
CENTER
 10
65.2684450228
 20
209.3602081978
 11
65.2684450228
 21
208.6602081978
  0
LINE
  5
338
100
AcDbEntity
  8
DEFAULT_1
100
AcDbLine
 62
7
  6
CENTER
 10
65.2684450228
 20
218.1602081978
 11
65.2684450228
 21
218.8602081978
  0
LINE
  5
339
100
AcDbEntity
  8
0
100
AcDbLine
 62
7
  6
CONTINUOUS
 10
61.2684450228
 20
206.2602081978
 11
165.2684450228
 21
206.2602081978
  0
LINE
  5
33A
100
AcDbEntity
  8
0
100
AcDbLine
 62
9
  6
CONTINUOUS
 10
61.2684450228
 20
208.0102081978
 11
165.2684450228
 21
208.0102081978
  0
LINE
  5
33B
100
AcDbEntity
  8
0
100
AcDbLine
 62
7
  6
CONTINUOUS
 10
61.2684450228
 20
209.5102081978
 11
165.2684450228
 21
209.5102081978
  0
LINE
  5
33C
100
AcDbEntity
  8
0
100
AcDbLine
 62
9
  6
CONTINUOUS
 10
61.2684450228
 20
209.7102081978
 11
165.2684450228
 21
209.7102081978
  0
LINE
  5
33D
100
AcDbEntity
  8
DEFAULT_1
100
AcDbLine
 62
7
  6
CENTER
 10
113.2684450228
 20
203.2602081978
 11
113.2684450228
 21
224.2602081978
  0
LINE
  5
33E
100
AcDbEntity
  8
0
100
AcDbLine
 62
7
  6
CONTINUOUS
 10
160.7684450228
 20
211.7602081978
 11
161.7684450228
 21
211.7602081978
  0
LINE
  5
33F
100
AcDbEntity
  8
DEFAULT_1
100
AcDbLine
 62
7
  6
CENTER
 10
58.2684450228
 20
213.7602081978
 11
168.2684450228
 21
213.7602081978
  0
LINE
  5
340
100
AcDbEntity
  8
0
100
AcDbLine
 62
7
  6
CONTINUOUS
 10
161.7684450228
 20
215.7602081978
 11
160.7684450228
 21
215.7602081978
  0
LINE
  5
341
100
AcDbEntity
  8
0
100
AcDbLine
 62
9
  6
CONTINUOUS
 10
61.2684450228
 20
217.8102081978
 11
165.2684450228
 21
217.8102081978
  0
LINE
  5
342
100
AcDbEntity
  8
0
100
AcDbLine
 62
7
  6
CONTINUOUS
 10
61.2684450228
 20
218.0102081978
 11
165.2684450228
 21
218.0102081978
  0
LINE
  5
343
100
AcDbEntity
  8
0
100
AcDbLine
 62
9
  6
CONTINUOUS
 10
61.2684450228
 20
219.5102081978
 11
165.2684450228
 21
219.5102081978
  0
LINE
  5
344
100
AcDbEntity
  8
0
100
AcDbLine
 62
7
  6
CONTINUOUS
 10
61.2684450228
 20
221.2602081978
 11
165.2684450228
 21
221.2602081978
  0
LINE
  5
345
100
AcDbEntity
  8
DEFAULT_1
100
AcDbLine
 62
7
  6
CENTER
 10
161.2684450228
 20
218.1602081978
 11
161.2684450228
 21
215.0067601168
  0
LINE
  5
346
100
AcDbEntity
  8
0
100
AcDbLine
 62
7
  6
CONTINUOUS
 10
161.2684450228
 20
214.6402081978
 11
161.2684450228
 21
212.8802081978
  0
LINE
  5
347
100
AcDbEntity
  8
DEFAULT_1
100
AcDbLine
 62
7
  6
CENTER
 10
161.2684450228
 20
209.3602081978
 11
161.2684450228
 21
212.5136562788
  0
LINE
  5
348
100
AcDbEntity
  8
0
100
AcDbLine
 62
7
  6
CONTINUOUS
 10
165.2684450228
 20
221.2602081978
 11
165.2684450228
 21
206.2602081978
  0
LINE
  5
349
100
AcDbEntity
  8
0
100
AcDbLine
 62
7
  6
CONTINUOUS
 10
193.3166050748
 20
206.2602081978
 11
192.3166050748
 21
206.2602081978
  0
LINE
  5
34A
100
AcDbEntity
  8
0
100
AcDbLine
 62
7
  6
CONTINUOUS
 10
191.8166050748
 20
208.5102081978
 11
189.0166050748
 21
208.5102081978
  0
LINE
  5
34B
100
AcDbEntity
  8
0
100
AcDbLine
 62
7
  6
CONTINUOUS
 10
189.0166050748
 20
209.5102081978
 11
191.8166050748
 21
209.5102081978
  0
LINE
  5
34C
100
AcDbEntity
  8
DEFAULT_1
100
AcDbLine
 62
7
  6
CENTER
 10
187.8166050748
 20
218.1602081978
 11
187.8166050748
 21
217.8102081978
  0
LINE
  5
34D
100
AcDbEntity
  8
DEFAULT_1
100
AcDbLine
 62
7
  6
CENTER
 10
187.8166050748
 20
209.3602081978
 11
187.8166050748
 21
209.7102081978
  0
LINE
  5
34E
100
AcDbEntity
  8
0
100
AcDbLine
 62
7
  6
CONTINUOUS
 10
187.8166050748
 20
209.7102081978
 11
187.8166050748
 21
217.8102081978
  0
LINE
  5
34F
100
AcDbEntity
  8
0
100
AcDbLine
 62
7
  6
CONTINUOUS
 10
188.8166050748
 20
217.8102081978
 11
188.8166050748
 21
209.7102081978
  0
LINE
  5
350
100
AcDbEntity
  8
DEFAULT_1
100
AcDbLine
 62
7
  6
CENTER
 10
198.3073766954
 20
213.7602081978
 11
190.8166300748
 21
213.7602081978
  0
LINE
  5
351
100
AcDbEntity
  8
0
100
AcDbLine
 62
7
  6
CONTINUOUS
 10
188.6966050748
 20
213.7602081978
 11
186.9366050748
 21
213.7602081978
  0
LINE
  5
352
100
AcDbEntity
  8
DEFAULT_1
100
AcDbLine
 62
7
  6
CENTER
 10
183.4166050748
 20
213.7602081978
 11
184.8165800748
 21
213.7602081978
  0
LINE
  5
353
100
AcDbEntity
  8
0
100
AcDbLine
 62
7
  6
CONTINUOUS
 10
192.3166050748
 20
206.2602081978
 11
192.3166050748
 21
208.0102081978
  0
LINE
  5
354
100
AcDbEntity
  8
0
100
AcDbLine
 62
7
  6
CONTINUOUS
 10
192.3166050748
 20
219.5102081978
 11
192.3166050748
 21
221.2602081978
  0
LINE
  5
355
100
AcDbEntity
  8
0
100
AcDbLine
 62
7
  6
CONTINUOUS
 10
193.3166050748
 20
221.2602081978
 11
193.3166050748
 21
219.5102081978
  0
LINE
  5
356
100
AcDbEntity
  8
0
100
AcDbLine
 62
7
  6
CONTINUOUS
 10
193.3166050748
 20
208.0102081978
 11
193.3166050748
 21
206.2602081978
  0
LINE
  5
357
100
AcDbEntity
  8
0
100
AcDbLine
 62
7
  6
CONTINUOUS
 10
191.8166050748
 20
218.0102081978
 11
189.0166050748
 21
218.0102081978
  0
LINE
  5
358
100
AcDbEntity
  8
0
100
AcDbLine
 62
7
  6
CONTINUOUS
 10
189.0166050748
 20
219.0102081978
 11
191.8166050748
 21
219.0102081978
  0
LINE
  5
359
100
AcDbEntity
  8
0
100
AcDbLine
 62
7
  6
CONTINUOUS
 10
192.3166050748
 20
221.2602081978
 11
193.3166050748
 21
221.2602081978
  0
LINE
  5
35A
100
AcDbEntity
  8
0
100
AcDbLine
 62
2
  6
CONTINUOUS
 10
109.2494462001
 20
132.4734059857
 11
120.7375414382
 21
132.4734059857
  0
LINE
  5
35B
100
AcDbEntity
  8
0
100
AcDbLine
 62
2
  6
CONTINUOUS
 10
120.7375414382
 20
137.4734059857
 11
109.2494462001
 21
137.4734059857
  0
LINE
  5
35C
100
AcDbEntity
  8
0
100
AcDbLine
 62
7
  6
CONTINUOUS
 10
99.9934938191
 20
149.8484059857
 11
99.9934938191
 21
147.8484059857
  0
LINE
  5
35D
100
AcDbEntity
  8
0
100
AcDbLine
 62
7
  6
CONTINUOUS
 10
104.4934938191
 20
156.4484059857
 11
104.4934938191
 21
150.8484059857
  0
LINE
  5
35E
100
AcDbEntity
  8
0
100
AcDbLine
 62
7
  6
CONTINUOUS
 10
106.4934938191
 20
150.8484059857
 11
106.4934938191
 21
156.4484059857
  0
LINE
  5
35F
100
AcDbEntity
  8
0
100
AcDbLine
 62
7
  6
CONTINUOUS
 10
99.9934938191
 20
147.8484059857
 11
103.4934938191
 21
147.8484059857
  0
LINE
  5
360
100
AcDbEntity
  8
0
100
AcDbLine
 62
7
  6
CONTINUOUS
 10
126.4934938191
 20
147.8484059857
 11
129.9934938191
 21
147.8484059857
  0
LINE
  5
361
100
AcDbEntity
  8
0
100
AcDbLine
 62
7
  6
CONTINUOUS
 10
129.9934938191
 20
149.8484059857
 11
126.4934938191
 21
149.8484059857
  0
LINE
  5
362
100
AcDbEntity
  8
0
100
AcDbLine
 62
7
  6
CONTINUOUS
 10
103.4934938191
 20
149.8484059857
 11
99.9934938191
 21
149.8484059857
  0
LINE
  5
363
100
AcDbEntity
  8
DEFAULT_1
100
AcDbLine
 62
7
  6
CENTER
 10
114.9934938191
 20
150.0065732239
 11
114.9934938191
 21
161.8484059857
  0
LINE
  5
364
100
AcDbEntity
  8
0
100
AcDbLine
 62
7
  6
CONTINUOUS
 10
106.8934938191
 20
156.8484059857
 11
123.0934938191
 21
156.8484059857
  0
LINE
  5
365
100
AcDbEntity
  8
0
100
AcDbLine
 62
7
  6
CONTINUOUS
 10
123.0934938191
 20
158.8484059857
 11
106.8934938191
 21
158.8484059857
  0
LINE
  5
366
100
AcDbEntity
  8
0
100
AcDbLine
 62
7
  6
CONTINUOUS
 10
123.4934938191
 20
156.4484059857
 11
123.4934938191
 21
150.8484059857
  0
LINE
  5
367
100
AcDbEntity
  8
0
100
AcDbLine
 62
7
  6
CONTINUOUS
 10
125.4934938191
 20
150.8484059857
 11
125.4934938191
 21
156.4484059857
  0
LINE
  5
368
100
AcDbEntity
  8
0
100
AcDbLine
 62
7
  6
CONTINUOUS
 10
129.9934938191
 20
147.8484059857
 11
129.9934938191
 21
149.8484059857
  0
CIRCLE
  5
369
100
AcDbEntity
  8
0
100
AcDbCircle
 62
7
  6
CONTINUOUS
 10
65.2684450228
 20
213.7602081978
 40
2.1
  0
ARC
  5
36A
100
AcDbEntity
  8
0
100
AcDbCircle
 62
7
  6
CONTINUOUS
 10
161.7684450228
 20
213.7602081978
 40
2.0
100
AcDbArc
 50
270.0
 51
90.0
  0
ARC
  5
36B
100
AcDbEntity
  8
0
100
AcDbCircle
 62
7
  6
CONTINUOUS
 10
160.7684450228
 20
213.7602081978
 40
2.0
100
AcDbArc
 50
90.0
 51
270.0
  0
ARC
  5
36C
100
AcDbEntity
  8
0
100
AcDbCircle
 62
7
  6
CONTINUOUS
 10
191.8166050748
 20
219.5102081978
 40
1.5
100
AcDbArc
 50
270.0
 51
360.0
  0
ARC
  5
36D
100
AcDbEntity
  8
0
100
AcDbCircle
 62
7
  6
CONTINUOUS
 10
191.8166050748
 20
208.0102081978
 40
1.5
100
AcDbArc
 50
0.0
 51
90.0
  0
ARC
  5
36E
100
AcDbEntity
  8
0
100
AcDbCircle
 62
7
  6
CONTINUOUS
 10
189.0166050748
 20
209.7102081978
 40
1.2
100
AcDbArc
 50
180.0
 51
270.0
  0
ARC
  5
36F
100
AcDbEntity
  8
0
100
AcDbCircle
 62
7
  6
CONTINUOUS
 10
189.0166050748
 20
217.8102081978
 40
1.2
100
AcDbArc
 50
90.0
 51
180.0
  0
ARC
  5
370
100
AcDbEntity
  8
0
100
AcDbCircle
 62
7
  6
CONTINUOUS
 10
191.8166050748
 20
208.0102081978
 40
0.5
100
AcDbArc
 50
0.0
 51
90.0
  0
ARC
  5
371
100
AcDbEntity
  8
0
100
AcDbCircle
 62
7
  6
CONTINUOUS
 10
191.8166050748
 20
219.5102081978
 40
0.5
100
AcDbArc
 50
270.0
 51
360.0
  0
ARC
  5
372
100
AcDbEntity
  8
0
100
AcDbCircle
 62
7
  6
CONTINUOUS
 10
189.0166050748
 20
217.8102081978
 40
0.2
100
AcDbArc
 50
90.0
 51
180.0
  0
ARC
  5
373
100
AcDbEntity
  8
0
100
AcDbCircle
 62
7
  6
CONTINUOUS
 10
189.0166050748
 20
209.7102081978
 40
0.2
100
AcDbArc
 50
180.0
 51
270.0
  0
ARC
  5
374
100
AcDbEntity
  8
0
100
AcDbCircle
 62
7
  6
CONTINUOUS
 10
103.4934938191
 20
150.8484059857
 40
3.0
100
AcDbArc
 50
270.0
 51
360.0
  0
ARC
  5
375
100
AcDbEntity
  8
0
100
AcDbCircle
 62
7
  6
CONTINUOUS
 10
126.4934938191
 20
150.8484059857
 40
3.0
100
AcDbArc
 50
180.0
 51
270.0
  0
ARC
  5
376
100
AcDbEntity
  8
0
100
AcDbCircle
 62
2
  6
CONTINUOUS
 10
120.7375414382
 20
134.9734059857
 40
2.5
100
AcDbArc
 50
270.0
 51
90.0
  0
ARC
  5
377
100
AcDbEntity
  8
0
100
AcDbCircle
 62
2
  6
CONTINUOUS
 10
109.2494462001
 20
134.9734059857
 40
2.5
100
AcDbArc
 50
90.0
 51
270.0
  0
ARC
  5
378
100
AcDbEntity
  8
0
100
AcDbCircle
 62
7
  6
CONTINUOUS
 10
106.8934938191
 20
156.4484059857
 40
2.4
100
AcDbArc
 50
90.0
 51
180.0
  0
ARC
  5
379
100
AcDbEntity
  8
0
100
AcDbCircle
 62
7
  6
CONTINUOUS
 10
123.0934938191
 20
156.4484059857
 40
2.4
100
AcDbArc
 50
0.0
 51
90.0
  0
ARC
  5
37A
100
AcDbEntity
  8
0
100
AcDbCircle
 62
7
  6
CONTINUOUS
 10
126.4934938191
 20
150.8484059857
 40
1.0
100
AcDbArc
 50
180.0
 51
270.0
  0
ARC
  5
37B
100
AcDbEntity
  8
0
100
AcDbCircle
 62
7
  6
CONTINUOUS
 10
103.4934938191
 20
150.8484059857
 40
1.0
100
AcDbArc
 50
270.0
 51
360.0
  0
ARC
  5
37C
100
AcDbEntity
  8
0
100
AcDbCircle
 62
7
  6
CONTINUOUS
 10
106.8934938191
 20
156.4484059857
 40
0.4
100
AcDbArc
 50
90.0
 51
180.0
  0
ARC
  5
37D
100
AcDbEntity
  8
0
100
AcDbCircle
 62
7
  6
CONTINUOUS
 10
123.0934938191
 20
156.4484059857
 40
0.4
100
AcDbArc
 50
0.0
 51
90.0
  0
ENDSEC
  0
SECTION
  2
OBJECTS
  0
DICTIONARY
  5
C
100
AcDbDictionary
280
0
281
1
  3
ACAD_GROUP
350
D
  3
ACAD_MLINESTYLE
350
17
  3
ACAD_LAYOUT
350
1A
  3
ACAD_PLOTSETTINGS
350
19
  3
ACAD_PLOTSTYLENAME
350
E
  3
ACAD_TABLESTYLE
350
       37E
  0
DICTIONARY
  5
D
102
{ACAD_REACTORS
330
C
102
}
100
AcDbDictionary
280
0
281
1
  0
ACDBDICTIONARYWDFLT
  5
E
102
{ACAD_REACTORS
330
C
102
}
100
AcDbDictionary
281
1
  3
Normal
350
F
100
AcDbDictionaryWithDefault
340
F
  0
DICTIONARY
  5
17
102
{ACAD_REACTORS
330
C
102
}
100
AcDbDictionary
280
0
281
1
  3
Standard
350
18
  0
DICTIONARY
  5
37E
330
C
100
AcDbDictionary
281
1
  3
Standard
350
       381
  3
Standard1
350
       382
  0
DICTIONARY
  5
19
102
{ACAD_REACTORS
330
C
102
}
100
AcDbDictionary
281
1
  0
DICTIONARY
  5
1A
102
{ACAD_REACTORS
330
C
102
}
100
AcDbDictionary
281
1
  3
Model
350
37F
  3
Layout1
350
380
  0
ACDBPLACEHOLDER
  5
F
102
{ACAD_REACTORS
330
E
102
}
  0
MLINESTYLE
  5
18
102
{ACAD_REACTORS
330
17
102
}
100
AcDbMlineStyle
  2
STANDARD
 70
0
  3

 62
256
 51
90.0
 52
90.0
 71
2
 49
0.5
 62
256
  6
BYLAYER
 49
-0.5
 62
256
  6
BYLAYER
  0
LAYOUT
  5
37F
102
{ACAD_REACTORS
330
1A
102
}
100
AcDbPlotSettings
  1

  2
none_device
  4

  6

 40
0.0
 41
0.0
 42
0.0
 43
0.0
 44
210.0
 45
297.0
 46
0.0
 47
0.0
 48
0.0
 49
0.0
140
0.0
141
0.0
142
1.0
143
1.0
 70
1024
 72
1
 73
0
 74
0
  7

 75
0
147
1.0
148
0.0
149
0.0
100
AcDbLayout
  1
Model
 70
0
 71
0
 10
0.0
 20
0.0
 11
210.0
 21
297.0
 12
0.0
 22
0.0
 32
0.0
 14
0.0
 24
0.0
 34
0.0
 15
0.0
 25
0.0
 35
0.0
146
0.0
 13
0.0
 23
0.0
 33
0.0
 16
1.0
 26
0.0
 36
0.0
 17
0.0
 27
1.0
 37
0.0
 76
0
330
208
345
0
346
0
  0
LAYOUT
  5
380
102
{ACAD_REACTORS
330
1A
102
}
100
AcDbPlotSettings
  1

  2
none_device
  4

  6

 40
0.0
 41
0.0
 42
0.0
 43
0.0
 44
210.0
 45
297.0
 46
0.0
 47
0.0
 48
0.0
 49
0.0
140
0.0
141
0.0
142
1.0
143
1.0
 70
0
 72
1
 73
0
 74
0
  7

 75
0
147
1.0
148
0.0
149
0.0
100
AcDbLayout
  1
Layout1
 70
0
 71
1
 10
0.0
 20
0.0
 11
210.0
 21
297.0
 12
0.0
 22
0.0
 32
0.0
 14
0.0
 24
0.0
 34
0.0
 15
0.0
 25
0.0
 35
0.0
146
0.0
 13
0.0
 23
0.0
 33
0.0
 16
1.0
 26
0.0
 36
0.0
 17
0.0
 27
1.0
 37
0.0
 76
0
330
209
345
0
346
0
  0
TABLESTYLE
  5
381
102
{ACAD_REACTORS
330
37E
102
}
330
37E
100
AcDbTableStyle
  3
Standard
 70
0
 71
0
 40
0.06
 41
0.06
280
1
281
1
  7
Standard
140
0.18
170
1
 62
0
 63
7
283
0
  7
Standard
140
0.18
170
1
 62
0
 63
7
283
0
  7
Standard
140
0.18
170
1
 62
0
 63
7
283
0
  0
TABLESTYLE
  5
382
102
{ACAD_REACTORS
330
37E
330
327
330
328
102
}
330
37E
100
AcDbTableStyle
  3
Standard1
 70
1
 71
0
 40
0.06
 41
0.06
280
1
281
1
  7
Standard
140
0.18
170
1
 62
0
 63
7
283
0
  7
Standard
140
0.18
170
1
 62
0
 63
7
283
0
  7
Standard
140
0.18
170
1
 62
0
 63
7
283
0
  0
ENDSEC
  0
EOF
